<?xml version="1.0" standalone="no"?>
<!DOCTYPE svg PUBLIC "-//W3C//DTD SVG 1.1//EN" "http://www.w3.org/Graphics/SVG/1.1/DTD/svg11.dtd" >
<svg xmlns="http://www.w3.org/2000/svg" xmlns:xlink="http://www.w3.org/1999/xlink" version="1.1">
<metadata>
Created by FontForge 20170731 at Tue Apr 13 10:32:47 2021
 By Aleksey,,,
(c) 1992, 1994, 1997, 2000, 2004 Adobe Systems Incorporated. All rights reserved.
</metadata>
<defs>
<font id="MyriadPro-Bold" horiz-adv-x="614" >
  <font-face 
    font-family="Myriad Pro"
    font-weight="700"
    font-stretch="normal"
    units-per-em="2048"
    panose-1="2 11 7 3 3 4 3 2 2 4"
    ascent="1536"
    descent="-512"
    x-height="1001"
    cap-height="1380"
    bbox="-334 -512 2572 2025"
    underline-thickness="102"
    underline-position="-307"
    unicode-range="U+0020-FB04"
  />
<missing-glyph horiz-adv-x="1024" 
d="M0 0v1434h1024v-1434h-1024zM512 809l348 522h-696zM573 717l349 -522v1044zM164 102h696l-348 523zM102 1239v-1044l349 522z" />
    <glyph glyph-name="f_f_j" unicode="ffj" horiz-adv-x="1814" 
d="M1599 1423l-65 -233q-87 41 -205 41q-116 0 -168.5 -52.5t-52.5 -142.5v-35h608v-880q0 -162 -34.5 -267t-106.5 -171q-132 -123 -385 -123l-31 243q131 10 184 66q34 36 48 107.5t14 218.5v577h-295v-772h-311v772h-326v-772h-311v772h-133v229h133v17q0 205 129 323
q112 107 299 107q82 0 174 -33l-70 -225q-38 20 -88 20q-53 0 -92 -34q-43 -43 -43 -146v-29h328v41q0 205 143 320t379 115q75 0 152 -15t126 -39z" />
    <glyph glyph-name="f_j" unicode="fj" horiz-adv-x="1200" 
d="M473 0h-311v772h-133v229h133v41q0 205 143 320t379 115q81 0 165.5 -17.5t129.5 -44.5l-59 -235q-93 51 -228 51q-116 0 -168.5 -52.5t-52.5 -142.5v-35h608v-880q0 -162 -34.5 -267t-106.5 -171q-132 -123 -385 -123l-31 243q132 10 185 66q34 36 47.5 107t13.5 219
v577h-295v-772z" />
    <glyph glyph-name="f_f" unicode="ff" horiz-adv-x="1331" 
d="M1106 0h-313v772h-320v-772h-311v772h-133v229h133v15q0 209 114 323q108 111 306 111q68 0 133 -25l-43 -229q-40 14 -78 14q-123 0 -123 -178v-31h322v39q0 98 31.5 188t95.5 148q55 52 128.5 76.5t147.5 24.5q76 0 166 -21l-12 -239q-47 14 -101 14q-73 0 -109 -49.5
t-36 -128.5v-52h201v-229h-199v-772z" />
    <glyph glyph-name="f_f_i" unicode="ffi" horiz-adv-x="1841" 
d="M1599 1423l-65 -233q-87 41 -205 41q-116 0 -168.5 -52.5t-52.5 -142.5v-35h608v-1001h-311v772h-295v-772h-311v772h-326v-772h-311v772h-133v229h133v17q0 205 129 323q112 107 299 107q82 0 174 -33l-70 -225q-38 20 -88 20q-53 0 -92 -34q-43 -43 -43 -146v-29h328
v41q0 205 143 320t379 115q75 0 152 -15t126 -39z" />
    <glyph glyph-name="f_f_l" unicode="ffl" horiz-adv-x="1841" 
d="M768 1421l-66 -227q-43 16 -92 16q-65 0 -94 -36q-45 -42 -45 -144v-29h328v43q0 88 40 175.5t111 144.5q142 113 381 113q227 0 385 -84v-1393h-311v1225q-38 20 -119 20q-89 0 -133.5 -56.5t-44.5 -148.5v-39h182v-229h-180v-772h-311v772h-326v-772h-311v772h-133v229
h133v13q0 207 125 323q122 113 325 113q76 0 156 -29z" />
    <glyph glyph-name="f_i" unicode="fi" horiz-adv-x="1204" 
d="M473 0h-311v772h-133v229h133v41q0 205 143 320t379 115q81 0 165.5 -17.5t129.5 -44.5l-59 -235q-93 51 -228 51q-116 0 -168.5 -52.5t-52.5 -142.5v-35h608v-1001h-311v772h-295v-772z" />
    <glyph glyph-name="f_l" unicode="fl" horiz-adv-x="1204" 
d="M473 0h-311v772h-133v229h133v43q0 88 40 175.5t111 144.5q142 113 381 113q227 0 385 -84v-1393h-311v1225q-38 20 -119 20q-89 0 -133.5 -56.5t-44.5 -148.5v-39h182v-229h-180v-772z" />
    <glyph glyph-name=".notdef" horiz-adv-x="1024" 
d="M0 0v1434h1024v-1434h-1024zM512 809l348 522h-696zM573 717l349 -522v1044zM164 102h696l-348 523zM102 1239v-1044l349 522z" />
    <glyph glyph-name=".null" horiz-adv-x="0" 
 />
    <glyph glyph-name="nonmarkingreturn" horiz-adv-x="682" 
 />
    <glyph glyph-name="space" unicode=" " horiz-adv-x="413" 
 />
    <glyph glyph-name="exclam" unicode="!" horiz-adv-x="548" 
d="M391 453h-233l-45 927h323zM274 -23h-4q-79 0 -129.5 53.5t-50.5 133.5q0 83 51 134.5t133 51.5q81 0 131 -51t52 -135q0 -81 -50.5 -134t-132.5 -53z" />
    <glyph glyph-name="quotedbl" unicode="&#x22;" horiz-adv-x="813" 
d="M72 1417h276l-47 -555h-182zM465 1417h276l-47 -555h-182z" />
    <glyph glyph-name="numbersign" unicode="#" horiz-adv-x="1126" 
d="M457 555h188l31 231h-187zM375 0h-185l54 367h-168v188h198l33 231h-172v189h201l53 356h180l-51 -356h189l51 356h182l-51 -356h164v-189h-195l-31 -231h168v-188h-200l-52 -367h-184l53 367h-186z" />
    <glyph glyph-name="dollar" unicode="$" horiz-adv-x="1136" 
d="M664 -178h-203v194q-98 4 -192 29t-156 59l61 240q165 -90 340 -90q90 0 144.5 34t54.5 93q0 58 -51 98.5t-168 79.5q-180 61 -274.5 148t-94.5 227q0 138 91.5 236t254.5 128v195h201v-180q161 -5 299 -68l-62 -231q-145 71 -295 71q-92 0 -134 -33.5t-42 -82.5
q0 -48 56.5 -87t191.5 -87q182 -64 261 -154.5t79 -230.5q0 -141 -95 -245t-267 -132v-211z" />
    <glyph glyph-name="percent" unicode="%" horiz-adv-x="1802" 
d="M430 1354q166 0 261 -110.5t95 -285.5q0 -101 -30 -183.5t-81.5 -134.5t-117.5 -80t-139 -28q-157 0 -260 110t-103 294q0 182 103 300t272 118zM420 1184q-66 0 -99.5 -67.5t-33.5 -174.5q-2 -107 34.5 -173.5t102.5 -66.5q65 0 98 63t33 179q0 109 -32.5 174.5
t-102.5 65.5zM600 -23h-168l766 1375h166zM1389 801q166 0 261 -110t95 -285q0 -100 -30.5 -182t-82 -134t-117.5 -80t-139 -28q-155 0 -257.5 109t-102.5 292q0 181 102.5 299.5t270.5 118.5zM1380 631q-66 0 -99.5 -67t-33.5 -173q-2 -107 34 -173t101 -66t98 62.5
t33 176.5q0 109 -32.5 174.5t-100.5 65.5z" />
    <glyph glyph-name="ampersand" unicode="&#x26;" horiz-adv-x="1388" 
d="M1376 0h-362q-56 60 -90 98q-156 -121 -379 -121q-121 0 -215.5 33.5t-151.5 90t-86 125t-29 143.5q0 257 263 397v6q-47 54 -77 125t-30 143q0 67 27 131t77 116.5t132 85t182 32.5q163 0 268 -88.5t105 -235.5q0 -219 -273 -354l-2 -8q25 -28 76 -86.5t88.5 -100.5
t67.5 -73q87 139 116 338h279q-59 -339 -229 -525q143 -165 243 -272zM592 203q113 0 186 69q-38 38 -84.5 88.5t-122 134.5t-104.5 117q-109 -82 -109 -192q0 -92 64 -154.5t170 -62.5zM627 1210h-4q-57 0 -90 -41.5t-33 -99.5q0 -100 96 -199q79 53 114 99t35 104
q0 55 -31 96t-87 41z" />
    <glyph glyph-name="quotesingle" unicode="'" horiz-adv-x="419" 
d="M72 1417h276l-47 -555h-182z" />
    <glyph glyph-name="parenleft" unicode="(" horiz-adv-x="643" 
d="M356 1415h217q-206 -337 -206 -829q0 -480 206 -826h-217q-62 91 -110 197.5t-85.5 275.5t-37.5 353q1 143 21.5 273.5t55.5 233t73 179.5t83 143z" />
    <glyph glyph-name="parenright" unicode=")" horiz-adv-x="643" 
d="M289 -240h-217q207 342 207 830q0 483 -207 825h217q233 -338 233 -827q-2 -485 -233 -828z" />
    <glyph glyph-name="asterisk" unicode="*" horiz-adv-x="929" 
d="M584 1405l178 -105l-219 -262v-4l327 66v-207l-329 55v-4l221 -254l-180 -104l-119 315h-4l-117 -315l-176 104l219 256l-2 4l-322 -57v207l320 -66v4l-215 260l182 107l113 -318h4z" />
    <glyph glyph-name="plus" unicode="+" horiz-adv-x="1220" 
d="M510 1090h201v-447h428v-190h-428v-453h-201v453h-428v190h428v447z" />
    <glyph glyph-name="comma" unicode="," horiz-adv-x="532" 
d="M211 -225l-209 -19q104 287 150 582l317 20q-112 -345 -258 -583z" />
    <glyph glyph-name="hyphen" unicode="-" horiz-adv-x="659" 
d="M61 641h537v-207h-537v207z" />
    <glyph glyph-name="period" unicode="." horiz-adv-x="532" 
d="M283 -23q-78 0 -129.5 53.5t-51.5 135.5q0 85 51.5 137.5t133.5 52.5q80 0 130.5 -52t51.5 -138q0 -83 -51 -136t-135 -53z" />
    <glyph glyph-name="slash" unicode="/" horiz-adv-x="677" 
d="M240 -80h-207l438 1485h207z" />
    <glyph glyph-name="zero" unicode="0" horiz-adv-x="1136" 
d="M573 1354q103 0 187 -36t141 -98.5t95 -150t55.5 -186.5t17.5 -211q0 -208 -54.5 -362.5t-169.5 -243.5t-280 -89q-125 0 -221.5 54t-155.5 149t-89 217t-31 267q0 148 31 271.5t92 218t158.5 147.5t223.5 53zM569 1118q-88 0 -139 -114t-51 -340q0 -224 50.5 -337.5
t141.5 -113.5t139 114.5t48 340.5q0 450 -189 450z" />
    <glyph glyph-name="one" unicode="1" horiz-adv-x="1136" 
d="M483 0v1055h-4l-254 -121l-51 233l354 164h256v-1331h-301z" />
    <glyph glyph-name="two" unicode="2" horiz-adv-x="1136" 
d="M1032 0h-944v188l170 154q120 107 193 178.5t132.5 143t84.5 129.5t26 116q0 87 -53.5 141t-163.5 54q-134 0 -284 -109l-89 222q78 61 193 99t242 38q221 0 344 -115t123 -301q0 -81 -26.5 -159t-79 -150.5t-110.5 -133.5t-139 -133l-123 -102v-4h504v-256z" />
    <glyph glyph-name="three" unicode="3" horiz-adv-x="1136" 
d="M78 70l63 235q53 -30 139 -56t171 -26q117 0 180 49.5t63 126.5q0 94 -78 143.5t-190 49.5h-127v223h123q57 0 107.5 14t89 50.5t38.5 89.5q0 63 -50 101t-146 38q-74 0 -151.5 -25t-125.5 -55l-63 225q66 42 177 71.5t234 29.5q205 0 323 -95t118 -237
q0 -108 -61.5 -188.5t-182.5 -120.5v-4q125 -23 207 -110.5t82 -215.5q0 -178 -148 -292t-397 -114q-121 0 -225.5 27t-169.5 66z" />
    <glyph glyph-name="four" unicode="4" horiz-adv-x="1136" 
d="M932 0h-295v317h-590v203l502 811h383v-780h158v-234h-158v-317zM336 551h301v295q0 76 8 248h-6q-110 -220 -125 -248l-176 -291z" />
    <glyph glyph-name="five" unicode="5" horiz-adv-x="1136" 
d="M975 1331v-256h-516l-29 -205q29 4 86 4q220 0 350 -96q162 -110 162 -334q0 -93 -39.5 -177.5t-111 -149t-180.5 -102.5t-240 -38q-114 0 -212 22t-159 54l57 234q50 -25 133 -45.5t166 -20.5q68 0 126.5 20.5t99.5 68t41 114.5q0 221 -375 221q-98 0 -178 -12l86 698
h733z" />
    <glyph glyph-name="six" unicode="6" horiz-adv-x="1136" 
d="M936 1350v-240q-42 2 -121 -4q-100 -8 -178.5 -37t-129.5 -73.5t-81.5 -96t-44.5 -111.5h6q105 105 283 105q174 0 292.5 -117t118.5 -317q0 -131 -61.5 -241t-174.5 -175.5t-253 -65.5q-130 0 -232.5 46t-167 126.5t-98 184.5t-33.5 225q0 183 63 336.5t175 257.5
q195 180 512 195q61 6 125 2zM588 207q81 0 129.5 66t48.5 169q0 98 -52 164t-147 66q-61 0 -110.5 -33t-71.5 -84q-14 -25 -14 -80q5 -114 60.5 -191t156.5 -77z" />
    <glyph glyph-name="seven" unicode="7" horiz-adv-x="1136" 
d="M100 1331h940v-196l-548 -1135h-330l549 1071v4h-611v256z" />
    <glyph glyph-name="eight" unicode="8" horiz-adv-x="1136" 
d="M303 682v4q-95 50 -143.5 126.5t-48.5 166.5q0 167 133.5 271t335.5 104q90 0 165 -20t125 -53.5t84.5 -78t50 -92.5t15.5 -98q0 -90 -49.5 -167.5t-145.5 -125.5v-6q107 -40 176.5 -125t69.5 -205q0 -182 -140.5 -294t-371.5 -112q-122 0 -219 32.5t-155 86t-88.5 118
t-30.5 134.5q0 117 62.5 201t174.5 133zM571 193q81 0 132 47t51 118q0 84 -56.5 139t-152.5 81q-76 -22 -119 -74.5t-43 -124.5q-2 -75 50.5 -130.5t137.5 -55.5zM565 1143q-76 0 -117.5 -44.5t-41.5 -109.5q0 -122 186 -180q56 16 95.5 62.5t39.5 105.5q0 70 -40.5 118
t-121.5 48z" />
    <glyph glyph-name="nine" unicode="9" horiz-adv-x="1136" 
d="M182 -18v241q34 -3 135 0q160 10 263 82q131 88 168 248l-5 2q-93 -96 -268 -96t-294.5 113t-119.5 302q0 97 37.5 184.5t103 153t160 104t201.5 38.5q125 0 222.5 -45.5t158 -125t92 -182t31.5 -221.5q0 -397 -233 -614q-190 -172 -510 -184q-60 -5 -142 0zM551 1126
q-79 0 -129.5 -65t-50.5 -168q0 -91 49 -152t139 -61q61 0 106 24t68 62q15 30 15 80q1 75 -17.5 136t-64.5 102.5t-115 41.5z" />
    <glyph glyph-name="colon" unicode=":" horiz-adv-x="532" 
d="M285 639q-79 0 -130 53t-51 133q0 83 51.5 136t131.5 53q81 0 130.5 -52t51.5 -137q0 -81 -50.5 -133.5t-133.5 -52.5zM285 -23q-79 0 -130 53.5t-51 133.5q0 83 51.5 135.5t131.5 52.5q81 0 130.5 -51.5t51.5 -136.5q0 -81 -50.5 -134t-133.5 -53z" />
    <glyph glyph-name="semicolon" unicode=";" horiz-adv-x="532" 
d="M211 -225l-207 -19q104 287 150 582l313 20q-104 -330 -256 -583zM295 639q-79 0 -129.5 53t-50.5 133q0 83 51 136t131 53q81 0 130.5 -52t51.5 -137q0 -81 -50.5 -133.5t-133.5 -52.5z" />
    <glyph glyph-name="less" unicode="&#x3c;" horiz-adv-x="1220" 
d="M119 457v176l985 457v-218l-746 -325v-4l746 -326v-217z" />
    <glyph glyph-name="equal" unicode="=" horiz-adv-x="1220" 
d="M1139 666h-1057v190h1057v-190zM1139 242h-1057v190h1057v-190z" />
    <glyph glyph-name="greater" unicode="&#x3e;" horiz-adv-x="1220" 
d="M1102 639v-188l-985 -451v217l762 326v4l-762 325v218z" />
    <glyph glyph-name="question" unicode="?" horiz-adv-x="911" 
d="M555 449h-272l-2 53q-10 166 120 319q61 74 90 121.5t29 93.5q0 56 -37.5 89t-111.5 34q-51 0 -107.5 -16.5t-95.5 -44.5l-70 223q148 84 342 84q192 0 294 -91.5t102 -228.5q0 -45 -12.5 -89.5t-25.5 -72.5t-45 -70.5t-44 -56t-50 -55.5q-107 -121 -104 -256v-36z
M412 -23q-81 0 -132 53.5t-51 133.5q0 83 51.5 134.5t131.5 51.5q83 0 132.5 -51t51.5 -135q0 -81 -50.5 -134t-133.5 -53z" />
    <glyph glyph-name="at" unicode="@" horiz-adv-x="1576" 
d="M907 512l29 195q-32 8 -64 8q-101 0 -171 -86t-70 -205q0 -60 26 -93.5t76 -33.5q57 0 109 63t65 152zM1081 -23l37 -116q-91 -41 -178 -57.5t-199 -16.5q-128 0 -243.5 45t-203.5 126.5t-140 204.5t-52 269q0 156 55.5 298t154 249t243 170t313.5 63q271 0 446 -166.5
t175 -424.5q0 -222 -110 -356t-279 -134q-74 0 -121.5 40.5t-54.5 117.5h-4q-102 -158 -267 -158q-101 0 -165 72.5t-64 195.5q0 127 57.5 235t169 175.5t254.5 67.5q66 0 135.5 -14.5t108.5 -35.5l-62 -381q-15 -91 -3 -134t55 -44q74 -3 136 88.5t62 257.5
q0 208 -129 340.5t-360 132.5q-118 0 -224.5 -45t-187.5 -125t-128.5 -201.5t-47.5 -264.5q0 -253 144 -395t378 -142q173 0 299 63z" />
    <glyph glyph-name="A" unicode="A" horiz-adv-x="1343" 
d="M852 354h-395l-99 -354h-321l420 1380h409l430 -1380h-338zM502 588h305l-86 293q-26 84 -70 266h-4q-5 -19 -27.5 -119t-35.5 -147z" />
    <glyph glyph-name="B" unicode="B" horiz-adv-x="1236" 
d="M135 6v1356q170 29 404 29q146 0 240 -17.5t169 -60.5q75 -40 119.5 -110.5t44.5 -162.5q0 -95 -57 -172t-170 -120v-5q123 -32 198.5 -120.5t75.5 -216.5q0 -179 -143 -295q-156 -125 -543 -125q-198 0 -338 20zM444 1155v-321h103q122 0 187 46t65 124t-57.5 118.5
t-163.5 40.5q-84 0 -134 -8zM444 610v-389q31 -4 121 -4q116 0 191 49.5t75 151.5q0 66 -38.5 110t-99.5 63t-142 19h-107z" />
    <glyph glyph-name="C" unicode="C" horiz-adv-x="1218" 
d="M1102 283l45 -246q-48 -23 -143 -41.5t-209 -18.5q-175 0 -313.5 53t-227.5 146.5t-135.5 219t-46.5 274.5q0 138 38 256.5t106.5 205t162.5 147.5t207 91.5t239 30.5q114 0 204 -18t136 -44l-65 -245q-115 51 -262 51q-194 0 -316.5 -118t-122.5 -339q0 -208 117.5 -329
t323.5 -121q157 0 262 45z" />
    <glyph glyph-name="D" unicode="D" horiz-adv-x="1425" 
d="M135 6v1354q198 31 420 31q194 0 330.5 -36.5t236.5 -111.5q234 -173 234 -520q0 -362 -228 -559q-213 -178 -639 -178q-202 0 -354 20zM446 1139v-903q31 -7 109 -7q220 -2 345.5 120.5t125.5 363.5q0 212 -116 325t-322 113q-88 0 -142 -12z" />
    <glyph glyph-name="E" unicode="E" horiz-adv-x="1093" 
d="M956 838v-254h-507v-328h567v-256h-879v1380h850v-256h-538v-286h507z" />
    <glyph glyph-name="F" unicode="F" horiz-adv-x="1079" 
d="M137 0v1380h842v-256h-530v-315h495v-254h-495v-555h-312z" />
    <glyph glyph-name="G" unicode="G" horiz-adv-x="1396" 
d="M1288 791v-728q-87 -30 -212 -53.5t-249 -23.5q-368 0 -561 184q-94 91 -144 221.5t-50 282.5q1 224 104 389t279.5 248.5t404.5 83.5q123 0 223.5 -19.5t159.5 -46.5l-65 -252q-130 60 -320 60q-204 0 -331.5 -115t-127.5 -332q0 -211 120.5 -331.5t316.5 -120.5
q106 0 151 18v291h-213v244h514z" />
    <glyph glyph-name="H" unicode="H" horiz-adv-x="1411" 
d="M137 1380h312v-530h514v530h311v-1380h-311v578h-514v-578h-312v1380z" />
    <glyph glyph-name="I" unicode="I" horiz-adv-x="583" 
d="M137 1380h312v-1380h-312v1380z" />
    <glyph glyph-name="J" unicode="J" horiz-adv-x="841" 
d="M406 510v870h311v-872q0 -283 -126 -407t-364 -124q-128 0 -229 33l35 252q74 -24 160 -24q106 0 159.5 60.5t53.5 211.5z" />
    <glyph glyph-name="K" unicode="K" horiz-adv-x="1257" 
d="M135 0v1380h309v-610h5q42 72 96 152l311 458h385l-457 -587l480 -793h-363l-340 596l-117 -145v-451h-309z" />
    <glyph glyph-name="L" unicode="L" horiz-adv-x="1046" 
d="M137 0v1380h312v-1118h548v-262h-860z" />
    <glyph glyph-name="M" unicode="M" horiz-adv-x="1732" 
d="M1325 0l-22 528q-13 360 -13 568h-4q-68 -266 -156 -535l-167 -538h-244l-148 532q-68 248 -125 541h-4q-10 -323 -22 -572l-27 -524h-289l89 1380h415l135 -460q70 -250 117 -494h8q64 276 131 496l146 458h409l74 -1380h-303z" />
    <glyph glyph-name="N" unicode="N" horiz-adv-x="1413" 
d="M422 0h-287v1380h365l286 -506q122 -216 226 -473h4q-25 253 -25 578v401h287v-1380h-328l-295 532q-149 267 -239 488h-8q14 -258 14 -604v-416z" />
    <glyph glyph-name="O" unicode="O" horiz-adv-x="1468" 
d="M743 1405q155 0 281 -55.5t207 -151t124.5 -222t43.5 -271.5q0 -338 -185 -533t-493 -195q-199 0 -348 94.5t-225 253t-76 357.5q0 206 82 370t236 258.5t353 94.5zM737 1157q-156 0 -246 -131.5t-90 -337.5q0 -207 90.5 -335t245.5 -128q103 0 179 61.5t114.5 167
t38.5 240.5q0 127 -37.5 231t-114 168t-180.5 64z" />
    <glyph glyph-name="P" unicode="P" horiz-adv-x="1189" 
d="M135 0v1362q174 29 422 29q284 0 422 -111q69 -54 108 -136.5t39 -182.5q0 -213 -127 -328q-158 -146 -448 -146q-63 0 -107 9v-496h-309zM444 1143v-408q36 -8 105 -8q125 0 196.5 59.5t71.5 163.5q0 96 -64 149.5t-182 53.5q-89 0 -127 -10z" />
    <glyph glyph-name="Q" unicode="Q" horiz-adv-x="1468" 
d="M1405 4l-88 -242q-239 69 -547 195q-43 17 -94 20q-120 8 -227 55.5t-192 132.5t-135 218t-50 297q0 155 48 288.5t134.5 230t214 151.5t279.5 55q153 0 278 -55.5t205.5 -151.5t124 -222t43.5 -269q0 -225 -92 -388.5t-234 -228.5v-8q149 -44 332 -78zM737 225
q155 0 243.5 130.5t88.5 338.5q0 198 -89 330.5t-243 132.5q-155 0 -245.5 -133.5t-90.5 -335.5q0 -132 39.5 -236t116.5 -165.5t180 -61.5z" />
    <glyph glyph-name="R" unicode="R" horiz-adv-x="1214" 
d="M135 0v1362q181 29 416 29q309 0 446 -109q129 -101 129 -291q0 -122 -72 -212t-171 -126v-6q128 -52 184 -256q12 -43 39 -149.5t43.5 -162t28.5 -79.5h-320q-38 78 -94 322q-19 87 -48 134.5t-70.5 66.5t-108.5 20h-93v-543h-309zM444 1147v-379h123q116 0 182 53.5
t66 145.5q0 93 -60 141.5t-169 48.5q-104 0 -142 -10z" />
    <glyph glyph-name="S" unicode="S" horiz-adv-x="1105" 
d="M82 66l63 256q69 -36 161.5 -61t185.5 -25q105 0 162 40t57 109q0 64 -52.5 107t-179.5 86q-381 136 -381 409q0 181 142.5 297.5t380.5 116.5q205 0 352 -70l-70 -250q-130 66 -287 66q-96 0 -148 -38.5t-52 -94.5q0 -62 55 -101t201 -94q184 -68 270 -166.5t86 -244.5
q0 -88 -34 -164.5t-100.5 -136t-174.5 -93.5t-246 -34q-112 0 -219.5 25.5t-171.5 60.5z" />
    <glyph glyph-name="T" unicode="T" horiz-adv-x="1122" 
d="M403 0v1118h-372v262h1061v-262h-377v-1118h-312z" />
    <glyph glyph-name="U" unicode="U" horiz-adv-x="1396" 
d="M135 1380h311v-792q0 -178 65 -269.5t185 -91.5q254 0 254 361v792h312v-774q0 -314 -150 -471.5t-426 -157.5q-267 0 -409 155.5t-142 477.5v770z" />
    <glyph glyph-name="V" unicode="V" horiz-adv-x="1302" 
d="M825 0h-364l-443 1380h342l168 -583q88 -309 123 -494h6q49 233 125 488l176 589h332z" />
    <glyph glyph-name="W" unicode="W" horiz-adv-x="1818" 
d="M700 0h-342l-327 1380h334l104 -567q18 -98 82 -483h4q28 181 90 487l117 563h332l110 -581q43 -226 74 -463h4q12 90 80 481l113 563h317l-356 -1380h-338l-117 594q-48 246 -66 426h-4q-44 -274 -80 -426z" />
    <glyph glyph-name="X" unicode="X" horiz-adv-x="1255" 
d="M1223 0h-361l-125 250q-25 48 -123 248h-4q-28 -78 -108 -248l-113 -250h-356l399 698l-385 682h359l120 -252q61 -125 105 -229h4q37 99 94 229l117 252h356l-389 -673z" />
    <glyph glyph-name="Y" unicode="Y" horiz-adv-x="1234" 
d="M766 0h-311v565l-437 815h359l139 -331q67 -155 107 -265h4q43 119 104 265l139 331h351l-455 -805v-575z" />
    <glyph glyph-name="Z" unicode="Z" horiz-adv-x="1181" 
d="M49 0v168l658 946v8h-598v258h1001v-180l-643 -934v-8h653v-258h-1071z" />
    <glyph glyph-name="bracketleft" unicode="[" horiz-adv-x="643" 
d="M557 -229h-418v1634h418v-172h-195v-1290h195v-172z" />
    <glyph glyph-name="backslash" unicode="\" horiz-adv-x="675" 
d="M643 -80h-207l-411 1485h206z" />
    <glyph glyph-name="bracketright" unicode="]" horiz-adv-x="643" 
d="M86 1405h418v-1634h-418v172h195v1290h-195v172z" />
    <glyph glyph-name="asciicircum" unicode="^" horiz-adv-x="1220" 
d="M1135 362h-224l-299 730h-6l-299 -730h-219l428 969h191z" />
    <glyph glyph-name="underscore" unicode="_" horiz-adv-x="1024" 
d="M0 -154h1024v-102h-1024v102z" />
    <glyph glyph-name="grave" unicode="`" 
d="M8 1438h287l176 -312h-213z" />
    <glyph glyph-name="a" unicode="a" horiz-adv-x="1081" 
d="M958 592v-350q0 -164 17 -242h-281l-18 100h-6q-101 -123 -287 -123q-146 0 -235 91t-89 217q0 190 157 286.5t431 96.5v12q0 53 -39.5 92t-142.5 39q-73 0 -149 -22t-128 -54l-57 201q162 90 389 90q121 0 208.5 -33.5t136.5 -95t71 -136.5t22 -169zM657 365v108
q-290 0 -290 -158q0 -58 33.5 -88t88.5 -30q56 0 101.5 33t60.5 81q6 24 6 54z" />
    <glyph glyph-name="b" unicode="b" horiz-adv-x="1224" 
d="M125 299v1155h311v-571h4q45 66 123 103.5t180 37.5q182 0 297.5 -139t114.5 -367q0 -130 -39 -235.5t-104 -171t-145.5 -100t-168.5 -34.5q-206 0 -301 162h-4l-12 -139h-264q8 132 8 299zM436 573v-147q0 -31 6 -55q15 -63 66 -105.5t117 -42.5q100 0 157.5 74.5
t57.5 208.5q0 123 -55 200.5t-160 77.5q-64 0 -116 -43t-67 -110q-6 -27 -6 -58z" />
    <glyph glyph-name="c" unicode="c" horiz-adv-x="923" 
d="M840 256l37 -229q-96 -47 -279 -47q-243 0 -386.5 138.5t-143.5 373.5q0 111 37.5 207t108.5 168.5t181 114.5t246 42q135 0 238 -39l-50 -231q-69 30 -174 30q-122 0 -196 -78t-72 -202q0 -132 78 -206.5t197 -74.5q100 0 178 33z" />
    <glyph glyph-name="d" unicode="d" horiz-adv-x="1220" 
d="M784 1454h312v-1155q0 -163 8 -299h-277l-12 145h-6q-45 -81 -129 -124.5t-184 -43.5q-182 0 -305 143t-123 372q-1 244 129.5 389t318.5 145q92 0 160.5 -30.5t103.5 -82.5h4v541zM784 446v132q0 39 -4 57q-14 64 -63.5 107.5t-118.5 43.5q-103 0 -159 -80t-56 -204
q0 -127 58 -202t155 -75q67 0 117.5 42t64.5 108q6 35 6 71z" />
    <glyph glyph-name="e" unicode="e" horiz-adv-x="1081" 
d="M1010 401h-645q6 -92 86 -141t196 -49q152 0 277 43l41 -211q-149 -63 -363 -63q-253 0 -393.5 136t-140.5 373q0 98 31 191t90.5 171t159 125.5t224.5 47.5q94 0 170.5 -28.5t127 -76t85 -112.5t49.5 -135.5t15 -147.5q0 -66 -10 -123zM362 614h369q0 32 -8 64t-26 65
t-54.5 53.5t-87.5 20.5q-47 0 -84 -19.5t-59 -51.5t-34.5 -65.5t-15.5 -66.5z" />
    <glyph glyph-name="f" unicode="f" horiz-adv-x="698" 
d="M473 0h-311v772h-133v229h133v39q0 97 31 187.5t94 148.5q109 101 278 101q74 0 164 -21l-12 -239q-47 14 -101 14q-73 0 -109 -49.5t-36 -128.5v-52h201v-229h-199v-772z" />
    <glyph glyph-name="g" unicode="g" horiz-adv-x="1198" 
d="M1073 702v-557q0 -317 -153 -450q-143 -123 -406 -123q-220 0 -360 76l61 237q53 -31 130.5 -53t160.5 -22q117 0 188.5 65.5t71.5 198.5v63h-4q-44 -62 -114 -95.5t-156 -33.5q-186 0 -305 136.5t-119 351.5q0 119 36 219t98 167t144.5 104.5t175.5 37.5q188 0 275 -143
h4l10 120h270q-8 -132 -8 -299zM762 446v148q0 30 -6 57q-18 63 -61.5 100t-106.5 37q-89 0 -147 -75.5t-58 -208.5q0 -116 54.5 -191t148.5 -75q61 0 106 34.5t60 89.5q10 31 10 84z" />
    <glyph glyph-name="h" unicode="h" horiz-adv-x="1200" 
d="M125 0v1454h311v-573h4q48 66 123 104q73 39 162 39q157 0 253.5 -111t96.5 -329v-584h-311v551q0 221 -162 221q-57 0 -97 -31.5t-59 -78.5q-10 -22 -10 -68v-594h-311z" />
    <glyph glyph-name="i" unicode="i" horiz-adv-x="561" 
d="M436 0h-311v1001h311v-1001zM283 1436q73 0 117 -44t46 -112q0 -67 -45.5 -111.5t-121.5 -44.5q-72 0 -117 45t-45 111q0 67 46 111.5t120 44.5z" />
    <glyph glyph-name="j" unicode="j" horiz-adv-x="595" 
d="M-49 -440l-31 243q131 10 184 66q34 36 48 107.5t14 218.5v806h311v-882q0 -160 -34.5 -265t-106.5 -171q-132 -123 -385 -123zM322 1436q73 0 117 -44t46 -112q0 -66 -46 -111t-122 -45q-72 0 -116.5 45t-44.5 111q0 67 46 111.5t120 44.5z" />
    <glyph glyph-name="k" unicode="k" horiz-adv-x="1110" 
d="M436 1454v-874h4q34 64 72 120l203 301h375l-359 -405l410 -596h-383l-244 412l-78 -99v-313h-311v1454h311z" />
    <glyph glyph-name="l" unicode="l" horiz-adv-x="563" 
d="M125 0v1454h311v-1454h-311z" />
    <glyph glyph-name="m" unicode="m" horiz-adv-x="1761" 
d="M125 0v682q0 139 -8 319h264l12 -135h6q104 160 303 160q97 0 169.5 -46.5t105.5 -125.5h4q59 81 131 123q87 49 191 49q152 0 244.5 -109.5t92.5 -326.5v-590h-303v545q0 229 -147 229q-53 0 -90 -30t-56 -78q-10 -38 -10 -80v-586h-303v563q0 98 -36.5 154.5
t-108.5 56.5q-55 0 -92.5 -33t-53.5 -77q-12 -30 -12 -80v-584h-303z" />
    <glyph glyph-name="n" unicode="n" horiz-adv-x="1200" 
d="M125 0v682q0 139 -8 319h270l14 -139h7q39 63 117.5 112.5t191.5 49.5q161 0 259.5 -109.5t98.5 -322.5v-592h-311v555q0 217 -158 217q-59 0 -99.5 -34t-60.5 -83q-10 -25 -10 -77v-578h-311z" />
    <glyph glyph-name="o" unicode="o" horiz-adv-x="1181" 
d="M604 1026q228 0 369 -143t141 -371q0 -133 -44.5 -237.5t-119.5 -168t-168 -96.5t-196 -33q-226 0 -372 140t-146 377q0 244 146 388t390 144zM594 803q-70 0 -118 -46t-67.5 -111.5t-19.5 -143.5q0 -133 54 -217t151 -84q92 0 145.5 83t53.5 220q0 78 -19.5 143.5
t-66 110.5t-113.5 45z" />
    <glyph glyph-name="p" unicode="p" horiz-adv-x="1224" 
d="M125 -406v1072q0 147 -8 335h270l14 -139h5q115 162 333 162q82 0 157 -35.5t133 -99.5t92 -161.5t34 -213.5q0 -132 -39.5 -237t-105 -169t-145 -97.5t-165.5 -33.5q-88 0 -156.5 32t-103.5 83h-4v-498h-311zM436 567v-137q0 -35 6 -65q15 -64 66 -106t117 -42
q100 0 157.5 77t57.5 206q0 125 -55 202.5t-156 77.5q-66 0 -119 -44t-68 -113q-6 -24 -6 -56z" />
    <glyph glyph-name="q" unicode="q" horiz-adv-x="1218" 
d="M784 -406v533h-4q-98 -150 -299 -150q-170 0 -291.5 140.5t-121.5 369.5q0 105 25.5 194t68.5 151.5t99.5 107t120 65.5t128.5 21q196 0 281 -141l4 -2l8 118h299q-6 -294 -6 -301v-1106h-312zM784 432v150q0 27 -6 51q-13 63 -62 106t-118 43q-103 0 -159 -78t-56 -204
q0 -125 57.5 -201t155.5 -76q65 0 115 40t65 102q8 27 8 67z" />
    <glyph glyph-name="r" unicode="r" horiz-adv-x="778" 
d="M125 0v672q0 214 -8 329h266l12 -184h8q36 103 112.5 156t158.5 53q30 0 65 -6v-293q-50 8 -84 8q-85 0 -141.5 -42t-71.5 -115q-6 -30 -6 -70v-508h-311z" />
    <glyph glyph-name="s" unicode="s" horiz-adv-x="888" 
d="M68 49l55 221q46 -28 124 -50.5t144 -22.5q133 0 133 82q0 40 -29.5 63.5t-115.5 52.5q-150 50 -219.5 128t-67.5 173q0 143 112.5 236.5t295.5 93.5q164 0 280 -59l-53 -215q-40 22 -99.5 39.5t-117.5 17.5q-56 0 -87.5 -21.5t-31.5 -58.5q0 -36 34 -60t128 -57
q140 -49 204 -124t66 -185q0 -146 -111.5 -236t-320.5 -90q-190 0 -323 72z" />
    <glyph glyph-name="t" unicode="t" horiz-adv-x="751" 
d="M168 1188l305 84v-271h223v-229h-223v-362q0 -93 28 -135t95 -42q48 0 92 9l2 -236q-72 -26 -201 -26q-149 0 -235 86q-86 89 -86 296v410h-133v229h133v187z" />
    <glyph glyph-name="u" unicode="u" horiz-adv-x="1193" 
d="M1069 1001v-679q0 -154 8 -322h-270l-14 141h-7q-17 -27 -41 -52t-61.5 -52t-92 -43.5t-118.5 -16.5q-162 0 -257 107.5t-95 329.5v587h311v-538q0 -234 158 -234q59 0 99 33t56 76q13 29 13 68v595h311z" />
    <glyph glyph-name="v" unicode="v" horiz-adv-x="1085" 
d="M18 1001h338l136 -464q26 -90 57 -244h6q28 142 55 244l129 464h328l-373 -1001h-311z" />
    <glyph glyph-name="w" unicode="w" horiz-adv-x="1554" 
d="M23 1001h317l82 -411q44 -251 55 -328h6q8 52 19 103.5t30.5 130t22.5 92.5l107 413h245l101 -399q52 -207 73 -340h4q19 153 60 342l84 397h305l-307 -1001h-291l-94 350q-38 136 -66 314h-4q-25 -171 -63 -312l-101 -352h-293z" />
    <glyph glyph-name="x" unicode="x" horiz-adv-x="1062" 
d="M14 1001h348l99 -167q17 -30 45.5 -83t36.5 -67h4q56 114 78 154l88 163h338l-330 -477l334 -524h-353l-100 180q-20 34 -78 152h-6q-19 -40 -76 -152l-94 -180h-342l340 510z" />
    <glyph glyph-name="y" unicode="y" horiz-adv-x="1071" 
d="M12 1001h346l150 -493q36 -127 49 -186h8q18 84 43 188l125 491h332l-234 -659q-103 -287 -183 -432.5t-169 -224.5q-137 -121 -299 -138l-67 263q66 14 135 53q35 19 71 53.5t58 71.5q16 26 16 45q0 21 -12 51z" />
    <glyph glyph-name="z" unicode="z" horiz-adv-x="960" 
d="M45 0v178l315 395q88 102 158 177v4h-438v247h819v-188l-301 -379q-13 -14 -40 -45.5t-42.5 -49.5t-38.5 -43t-43 -44v-4h481v-248h-870z" />
    <glyph glyph-name="braceleft" unicode="{" horiz-adv-x="643" 
d="M61 510v156q49 2 82 15t48 35.5t20 42.5t6 48q0 23 -10 160q-12 110 -12 161q0 140 81.5 208.5t229.5 68.5h72v-174h-37q-67 -1 -96 -38t-29 -108q0 -44 10 -116q10 -103 10 -142q1 -111 -42 -164t-134 -73v-4q91 -18 134 -72t42 -166q0 -36 -10 -143q-10 -68 -10 -115
q0 -71 28.5 -108.5t96.5 -38.5h37v-172h-74q-309 0 -309 278q0 52 12 162q10 137 10 160q0 26 -5 46t-19.5 42t-48 35.5t-83.5 15.5z" />
    <glyph glyph-name="bar" unicode="|" horiz-adv-x="579" 
d="M180 1536h217v-2048h-217v2048z" />
    <glyph glyph-name="braceright" unicode="}" horiz-adv-x="643" 
d="M582 666v-156q-49 -2 -82 -15.5t-48 -36t-20 -42t-6 -45.5q0 -50 12 -160q11 -151 11 -162q0 -278 -310 -278h-73v172h36q68 1 96.5 38.5t28.5 108.5q0 47 -10 115q-10 107 -10 143q-1 112 42 166t134 72v4q-91 20 -134 73t-42 164q0 40 10 142q10 72 10 116
q0 71 -29 108t-96 38h-36v174h71q148 0 230 -68.5t82 -208.5q0 -10 -11 -161q-12 -110 -12 -160q0 -27 5 -47.5t19.5 -43t48 -35.5t83.5 -15z" />
    <glyph glyph-name="asciitilde" unicode="~" horiz-adv-x="1220" 
d="M283 393h-195q-1 196 76 289.5t209 93.5q70 0 128.5 -21.5t157.5 -74.5q80 -45 121 -63.5t76 -18.5q77 0 82 166h195q8 -204 -67.5 -294.5t-205.5 -90.5q-69 0 -132 22.5t-155 73.5q-58 34 -82.5 47.5t-56.5 26t-55 12.5q-42 0 -66 -37t-30 -131z" />
    <glyph glyph-name="uni00A0" unicode="&#xa0;" horiz-adv-x="413" 
 />
    <glyph glyph-name="exclamdown" unicode="&#xa1;" horiz-adv-x="548" 
d="M436 -391h-323l45 926h233zM274 1012h5q79 0 129.5 -52.5t50.5 -134.5q-2 -83 -51.5 -134.5t-131.5 -51.5q-83 0 -133.5 52t-50.5 134t51 134.5t131 52.5z" />
    <glyph glyph-name="cent" unicode="&#xa2;" horiz-adv-x="1136" 
d="M772 -25h-201v203q-187 26 -305 156q-112 131 -112 338q0 124 47 229.5t142.5 180.5t227.5 100v196h201v-186q105 -3 195 -41l-49 -229q-67 36 -183 36q-121 0 -192.5 -75.5t-71.5 -200.5q0 -131 76 -202.5t190 -71.5q108 0 203 36l37 -225q-81 -38 -205 -47v-197z" />
    <glyph glyph-name="sterling" unicode="&#xa3;" horiz-adv-x="1136" 
d="M1038 0h-934v166q90 37 159 120t69 181q0 55 -4 82h-201v213h164q-17 87 -17 166q0 192 128 309t335 117q152 0 240 -49l-49 -236q-66 37 -174 37q-101 0 -146 -54.5t-45 -138.5q0 -62 21 -151h280v-213h-254q3 -75 -18 -146q-29 -83 -100 -145v-4h546v-254z" />
    <glyph glyph-name="currency" unicode="&#xa4;" horiz-adv-x="1136" 
d="M569 1126q143 0 238 -73l156 172l137 -140l-178 -159q65 -111 65 -238q0 -147 -72 -246l175 -166l-136 -137l-149 180q-46 -39 -111 -60t-129 -21q-66 0 -130 20t-107 57l-148 -176l-133 137l170 162q-74 102 -74 244q0 135 72 244l-178 157l137 142l158 -174
q93 75 237 75zM563 918q-79 0 -132.5 -65t-53.5 -169q0 -113 58 -175.5t130 -62.5q76 0 132.5 62t56.5 178q0 101 -53.5 166.5t-137.5 65.5z" />
    <glyph glyph-name="yen" unicode="&#xa5;" horiz-adv-x="1136" 
d="M705 0h-293v328h-320v145h320v131h-320v146h246l-334 581h334l143 -327q17 -37 31 -73.5t31 -84t24 -66.5h4q6 14 36.5 96.5t51.5 129.5l146 325h328l-351 -581h244v-146h-321v-131h321v-145h-321v-328z" />
    <glyph glyph-name="brokenbar" unicode="&#xa6;" horiz-adv-x="579" 
d="M180 356h217v-716h-217v716zM180 1380h217v-716h-217v716z" />
    <glyph glyph-name="section" unicode="&#xa7;" horiz-adv-x="1148" 
d="M334 700q0 -49 43 -87t135 -70q34 -13 89.5 -31.5t93 -32t57.5 -24.5q28 17 44.5 46t16.5 60q0 93 -141 148q-30 12 -88.5 32.5t-103.5 37.5t-72 30q-74 -40 -74 -109zM950 1339l-49 -188q-120 57 -270 57q-88 0 -135 -26.5t-47 -71.5q0 -44 51.5 -75.5t167.5 -67.5
q92 -28 155.5 -55.5t120.5 -69t85 -100t28 -134.5q0 -153 -148 -248q36 -28 63 -77.5t27 -112.5q0 -72 -29.5 -130t-75.5 -94t-107.5 -60t-121 -34t-120.5 -10q-240 0 -383 90l59 189q56 -32 141 -58t170 -26t135 26.5t50 77.5q0 50 -48.5 83t-168.5 71q-93 28 -157 55
t-126 68.5t-93.5 98.5t-31.5 130q0 72 44 141.5t126 108.5q-34 28 -58 79.5t-24 106.5q0 150 126.5 234t322.5 84q185 0 321 -62z" />
    <glyph glyph-name="dieresis" unicode="&#xa8;" 
d="M92 1139q-61 0 -103 42.5t-42 102.5q0 61 42.5 102t104.5 41q59 0 99 -41t40 -102t-40 -103t-101 -42zM524 1139h-4q-60 0 -100.5 42.5t-40.5 102.5q0 62 41 102.5t104 40.5q60 0 101 -41t41 -102t-40.5 -103t-101.5 -42z" />
    <glyph glyph-name="copyright" unicode="&#xa9;" horiz-adv-x="1386" 
d="M698 1327q170 0 313.5 -84.5t226.5 -230t83 -316.5q0 -130 -49 -247.5t-132.5 -202.5t-199.5 -135t-244 -50q-129 0 -245.5 50t-201 135t-134 202.5t-49.5 247.5q0 171 84 316.5t229.5 230t318.5 84.5zM692 1210q-134 0 -247 -68.5t-178.5 -187.5t-65.5 -260
q0 -106 39 -202t104.5 -164.5t157 -109t192.5 -40.5q134 -1 247 67.5t179 187.5t66 261q0 141 -66 260t-179.5 187.5t-248.5 68.5zM971 1008l-31 -109q-27 15 -81.5 30t-113.5 15q-119 0 -186 -67t-67 -187q0 -113 69 -184.5t182 -71.5q129 0 205 49l31 -104
q-101 -66 -254 -66q-175 0 -276 104.5t-101 266.5q0 171 117 276t280 105q72 0 138.5 -17.5t87.5 -39.5z" />
    <glyph glyph-name="ordfeminine" unicode="&#xaa;" horiz-adv-x="774" 
d="M698 545h-190l-14 67h-5q-83 -80 -204 -77q-99 0 -159 56.5t-60 143.5q0 116 108.5 177t298.5 61v14q0 9 -4.5 20t-16.5 25t-39.5 23.5t-66.5 9.5q-107 0 -190 -51l-41 131q111 65 272 65q81 0 141 -23t94 -63.5t50 -90t16 -109.5v-219q0 -95 10 -160zM479 782v70
q-90 2 -146.5 -22.5t-56.5 -75.5q0 -35 26 -57.5t65 -22.5q33 0 62.5 17.5t39.5 43.5q10 20 10 47z" />
    <glyph glyph-name="guillemotleft" unicode="&#xab;" horiz-adv-x="952" 
d="M508 907l-244 -391l244 -389h-215l-238 389l236 391h217zM905 907l-243 -391l243 -389h-217l-235 389l235 391h217z" />
    <glyph glyph-name="logicalnot" unicode="&#xac;" horiz-adv-x="1220" 
d="M82 864h1057v-647h-199v457h-858v190z" />
    <glyph glyph-name="uni00AD" unicode="&#xad;" horiz-adv-x="595" 
d="M61 641h537v-207h-537v207z" />
    <glyph glyph-name="registered" unicode="&#xae;" horiz-adv-x="940" 
d="M426 1001v-116h-100v321q75 13 143 13q89 0 131 -27q35 -21 35 -70q0 -24 -20.5 -44t-53.5 -29v-5q51 -15 66 -81q14 -64 22 -78h-110q-10 13 -25 69q-5 25 -17.5 36t-37.5 11h-33zM430 1147v-78h29q61 0 61 39q0 41 -57 41q-7 0 -18.5 -1t-14.5 -1zM473 1405
q152 0 256.5 -103.5t104.5 -250.5q0 -148 -105 -251.5t-258 -103.5q-151 0 -258 104t-107 251q0 146 107.5 250t259.5 104zM469 1317q-108 0 -181 -78.5t-73 -189.5q0 -110 73.5 -187.5t182.5 -77.5q109 -1 182.5 77t73.5 190q0 110 -73.5 188t-184.5 78z" />
    <glyph glyph-name="macron" unicode="&#xaf;" 
d="M53 1364h512v-172h-512v172z" />
    <glyph glyph-name="degree" unicode="&#xb0;" horiz-adv-x="729" 
d="M369 1405q135 0 222 -87.5t87 -211.5q0 -131 -92 -218t-221 -87q-134 0 -222 86.5t-88 212.5q-1 127 90.5 216t223.5 89zM365 1262q-64 0 -105 -47.5t-41 -114.5q0 -66 42.5 -111t105.5 -45q64 0 105.5 45t41.5 113q0 66 -39.5 113t-109.5 47z" />
    <glyph glyph-name="plusminus" unicode="&#xb1;" horiz-adv-x="1220" 
d="M510 1186h201v-355h428v-190h-428v-360h-201v360h-428v190h428v355zM82 190h1057v-190h-1057v190z" />
    <glyph glyph-name="twosuperior" unicode="&#xb2;" horiz-adv-x="720" 
d="M31 905v117l127 113q138 125 170 160q67 74 67 137q0 44 -32 71t-89 27q-93 0 -176 -57l-61 155q122 88 299 88q147 0 229 -70t82 -178q0 -43 -14 -83.5t-32 -70t-54.5 -66.5t-62 -59t-72.5 -61l-50 -41v-4h300v-178h-631z" />
    <glyph glyph-name="threesuperior" unicode="&#xb3;" horiz-adv-x="710" 
d="M96 1501l-45 150q47 28 124.5 46.5t162.5 18.5q142 0 218.5 -57t76.5 -146q0 -64 -46 -111.5t-122 -70.5v-4q87 -9 143 -60.5t56 -127.5q0 -108 -101 -176t-268 -68q-82 0 -157 16t-120 41l48 160q36 -20 92.5 -36.5t107.5 -16.5q63 0 104.5 26.5t41.5 67.5q0 48 -52 74
t-127 28h-61v140h59q61 0 109.5 20.5t48.5 63.5q0 73 -108 73q-99 0 -185 -51z" />
    <glyph glyph-name="acute" unicode="&#xb4;" 
d="M332 1438h286l-249 -312h-213z" />
    <glyph glyph-name="mu" unicode="&#xb5;" horiz-adv-x="1198" 
d="M801 137h-6q-28 -61 -93 -106t-155 -45q-88 0 -141 59v-86q0 -258 22 -365h-274q-29 71 -29 363v1044h311v-559q0 -103 38.5 -159t113.5 -56q56 0 100.5 34t61.5 77q10 20 10 65v598h311v-675q0 -63 20 -88t64 -27l-16 -215q-40 -19 -113 -19q-177 0 -225 160z" />
    <glyph glyph-name="paragraph" unicode="&#xb6;" horiz-adv-x="1110" 
d="M618 -96h-196v637h-12q-47 0 -103.5 24t-111 68.5t-91.5 121t-38 169.5q-1 70 13.5 132t55.5 125t107 107.5t175.5 72.5t252.5 28q190 0 293 -23v-1462h-197v1292h-148v-1292z" />
    <glyph glyph-name="periodcentered" unicode="&#xb7;" horiz-adv-x="532" 
d="M264 342q-78 0 -129 53t-51 135q0 85 51 138t133 53q80 0 131 -53t52 -138q0 -83 -51.5 -135.5t-135.5 -52.5z" />
    <glyph glyph-name="cedilla" unicode="&#xb8;" 
d="M248 8h168l-56 -98q61 -8 104.5 -49t43.5 -101q0 -93 -70.5 -135.5t-179.5 -42.5q-97 0 -164 41l41 115q58 -33 113 -33q30 0 50.5 13t20.5 40q0 63 -159 74z" />
    <glyph glyph-name="onesuperior" unicode="&#xb9;" 
d="M481 907h-239v602h-2l-164 -71l-31 168l227 100h209v-799z" />
    <glyph glyph-name="ordmasculine" unicode="&#xba;" horiz-adv-x="790" 
d="M399 1210q155 0 248.5 -93t93.5 -238q0 -164 -102.5 -254t-247.5 -90q-146 0 -244 91t-98 240q0 155 97 249.5t253 94.5zM391 1059q-42 0 -71 -31t-40.5 -72t-11.5 -86q0 -78 34.5 -131t92.5 -53q59 0 92 51.5t33 136.5q0 72 -34.5 128.5t-94.5 56.5z" />
    <glyph glyph-name="guillemotright" unicode="&#xbb;" horiz-adv-x="952" 
d="M291 516l-244 391h213l240 -391l-238 -389h-215zM684 516l-246 391h215l240 -391l-240 -389h-213z" />
    <glyph glyph-name="onequarter" unicode="&#xbc;" horiz-adv-x="1701" 
d="M510 545h-240v604h-2l-164 -72l-30 168l227 98h209v-798zM524 -23h-170l756 1377h170zM1522 0h-222v184h-401v129l350 494h273v-471h108v-152h-108v-184zM1300 336v151q0 30 4 82.5t5 69.5h-4q-69 -125 -74 -133l-115 -168l4 -2h180z" />
    <glyph glyph-name="onehalf" unicode="&#xbd;" horiz-adv-x="1701" 
d="M485 545h-239v604h-2l-164 -72l-31 168l227 98h209v-798zM477 -23h-170l754 1377h170zM993 0v115l127 114q140 125 176 164q62 71 62 131q0 44 -32 71.5t-89 27.5q-92 0 -176 -58l-62 156q122 88 299 88q147 0 229.5 -70t82.5 -178q0 -52 -17.5 -98t-56.5 -91t-71 -74
t-91 -77l-49 -39v-4h299v-178h-631z" />
    <glyph glyph-name="threequarters" unicode="&#xbe;" horiz-adv-x="1701" 
d="M133 1139l-45 149q47 28 124.5 47t162.5 19q142 0 218.5 -57t76.5 -146q0 -64 -46 -110.5t-122 -69.5v-4q86 -9 142 -60.5t56 -128.5q0 -108 -100.5 -175.5t-267.5 -67.5q-82 0 -157 16t-120 41l47 160q36 -20 93 -37t108 -17q64 0 105 27t41 68q0 48 -52 74t-127 26h-61
v139h59q61 0 109.5 20.5t48.5 63.5q0 34 -27 54t-82 20q-98 0 -184 -51zM590 -23h-168l752 1377h169zM1540 0h-221v184h-399v129l348 494h272v-471h109v-152h-109v-184zM1319 336v151q0 31 3.5 84t4.5 68h-4q-9 -16 -24.5 -45.5t-27 -50t-22.5 -37.5l-114 -168l4 -2h180z
" />
    <glyph glyph-name="questiondown" unicode="&#xbf;" horiz-adv-x="911" 
d="M510 1012q79 0 129.5 -52.5t50.5 -134.5q0 -83 -50 -134.5t-132 -51.5t-132 51.5t-52 134.5q0 82 51.5 134.5t134.5 52.5zM365 543h274l2 -54q9 -164 -121 -321q-60 -71 -89.5 -119t-29.5 -96q0 -54 37.5 -87t110.5 -34q54 0 110 16.5t95 45.5l67 -224q-145 -84 -342 -84
q-191 0 -292 91.5t-101 226.5q0 45 12.5 90t25.5 74t44 70t44.5 56.5t49.5 55.5q106 120 103 256v37z" />
    <glyph glyph-name="Agrave" unicode="&#xc0;" horiz-adv-x="1343" 
d="M852 354h-395l-99 -354h-321l420 1380h409l430 -1380h-338zM502 588h305l-86 293q-26 84 -70 266h-4q-5 -19 -27.5 -119t-35.5 -147zM313 1708h328l172 -250h-250z" />
    <glyph glyph-name="Aacute" unicode="&#xc1;" horiz-adv-x="1343" 
d="M852 354h-395l-99 -354h-321l420 1380h409l430 -1380h-338zM502 588h305l-86 293q-26 84 -70 266h-4q-5 -19 -27.5 -119t-35.5 -147zM690 1706h328l-250 -252h-250z" />
    <glyph glyph-name="Acircumflex" unicode="&#xc2;" horiz-adv-x="1343" 
d="M852 354h-395l-99 -354h-321l420 1380h409l430 -1380h-338zM502 588h305l-86 293q-26 84 -70 266h-4q-5 -19 -27.5 -119t-35.5 -147zM555 1706h233l207 -252h-219l-102 127h-4l-103 -127h-217z" />
    <glyph glyph-name="Atilde" unicode="&#xc3;" horiz-adv-x="1343" 
d="M852 354h-395l-99 -354h-321l420 1380h409l428 -1380h-336zM502 588h305l-86 293q-26 84 -70 266h-4q-5 -19 -27.5 -119t-35.5 -147zM535 1464h-144q-3 126 40 193t118 67q65 0 131 -41q66 -38 90 -38q26 0 37.5 18t17.5 70h140q3 -134 -37.5 -195t-122.5 -61
q-61 0 -133 39q-7 4 -20 11.5t-19 10.5t-15.5 7t-17.5 5.5t-16 1.5q-43 0 -49 -88z" />
    <glyph glyph-name="Adieresis" unicode="&#xc4;" horiz-adv-x="1343" 
d="M852 354h-395l-99 -354h-321l420 1380h409l430 -1380h-338zM502 588h305l-86 293q-26 84 -70 266h-4q-5 -19 -27.5 -119t-35.5 -147zM465 1458q-58 0 -98.5 41t-40.5 98q0 60 40.5 101t100.5 41q57 0 96 -40.5t39 -101.5q0 -58 -39 -98.5t-98 -40.5zM889 1458
q-59 0 -98 40.5t-39 98.5q0 60 39.5 101t99.5 41q59 0 98 -40.5t39 -101.5q0 -58 -39.5 -98.5t-99.5 -40.5z" />
    <glyph glyph-name="Aring" unicode="&#xc5;" horiz-adv-x="1343" 
d="M852 354h-395l-99 -354h-321l420 1380h409l430 -1380h-338zM502 588h305l-86 293q-26 84 -70 266h-4q-5 -19 -27.5 -119t-35.5 -147zM668 1839q111 0 171 -57t60 -146q0 -85 -63.5 -141.5t-169.5 -56.5q-108 0 -172 56t-64 140q0 88 63 146.5t175 58.5zM662 1735
q-41 0 -65 -30t-24 -69t25 -66.5t66 -27.5q42 0 66 26.5t24 67.5t-25 70t-67 29z" />
    <glyph glyph-name="AE" unicode="&#xc6;" horiz-adv-x="1777" 
d="M326 0h-320l588 1380h1051v-256h-568l37 -293h522v-253h-483l43 -322h524l-2 -256h-790l-49 377h-402zM569 627h275l-41 334q-14 109 -25 200h-6q-12 -36 -36.5 -105.5t-33.5 -97.5z" />
    <glyph glyph-name="Ccedilla" unicode="&#xc7;" horiz-adv-x="1222" 
d="M1102 283l45 -246q-115 -54 -324 -57l-39 -70q64 -15 107 -57.5t43 -110.5q0 -67 -38 -111t-90 -60.5t-116 -16.5q-110 0 -176 38l41 127q54 -28 115 -28q73 0 73 51q0 31 -37.5 49t-123.5 27l80 170q-190 25 -324.5 119.5t-200 238t-65.5 324.5q0 138 38 256.5
t106.5 205t162.5 147.5t207 91.5t239 30.5q114 0 204 -18t134 -44l-63 -245q-115 51 -260 51q-127 0 -224.5 -49t-157 -154t-59.5 -254q0 -208 117.5 -329t323.5 -121q157 0 262 45z" />
    <glyph glyph-name="Egrave" unicode="&#xc8;" horiz-adv-x="1093" 
d="M956 838v-254h-507v-328h567v-256h-879v1380h850v-256h-538v-286h507zM227 1708h328l172 -250h-250z" />
    <glyph glyph-name="Eacute" unicode="&#xc9;" horiz-adv-x="1093" 
d="M956 838v-254h-507v-328h567v-256h-879v1380h850v-256h-538v-286h507zM592 1706h328l-250 -252h-250z" />
    <glyph glyph-name="Ecircumflex" unicode="&#xca;" horiz-adv-x="1093" 
d="M956 838v-254h-507v-328h567v-256h-879v1380h850v-256h-538v-286h507zM453 1706h233l207 -252h-219l-103 127h-4l-102 -127h-217z" />
    <glyph glyph-name="Edieresis" unicode="&#xcb;" horiz-adv-x="1093" 
d="M954 838v-254h-505v-328h565v-256h-877v1380h848v-256h-536v-286h505zM346 1460h-4q-58 0 -98.5 41t-40.5 98q0 60 40.5 101t100.5 41q57 0 96 -40.5t39 -101.5q0 -58 -38.5 -98.5t-94.5 -40.5zM766 1460q-58 0 -97.5 40.5t-39.5 98.5q0 60 40 101t101 41q58 0 96.5 -40
t38.5 -102q0 -58 -39.5 -98.5t-99.5 -40.5z" />
    <glyph glyph-name="Igrave" unicode="&#xcc;" horiz-adv-x="583" 
d="M137 1380h312v-1380h-312v1380zM-55 1708h327l172 -250h-249z" />
    <glyph glyph-name="Iacute" unicode="&#xcd;" horiz-adv-x="583" 
d="M137 1380h312v-1380h-312v1380zM313 1706h328l-250 -252h-250z" />
    <glyph glyph-name="Icircumflex" unicode="&#xce;" horiz-adv-x="583" 
d="M137 1380h312v-1380h-312v1380zM174 1706h234l206 -252h-219l-102 127h-4l-103 -127h-217z" />
    <glyph glyph-name="Idieresis" unicode="&#xcf;" horiz-adv-x="583" 
d="M137 1380h312v-1380h-312v1380zM80 1460q-58 0 -98.5 41t-40.5 98q0 60 40.5 101t100.5 41q57 0 96 -40.5t39 -101.5q0 -58 -39 -98.5t-98 -40.5zM504 1460q-59 0 -98 40.5t-39 98.5q0 60 39.5 101t99.5 41q59 0 98 -40.5t39 -101.5q0 -58 -39.5 -98.5t-99.5 -40.5z" />
    <glyph glyph-name="Eth" unicode="&#xd0;" horiz-adv-x="1441" 
d="M6 582v243h146v541q198 31 419 31q197 0 332.5 -35t233.5 -111q111 -82 172 -215t61 -311q0 -190 -61 -331.5t-166 -231.5q-212 -180 -637 -180q-183 0 -354 18v582h-146zM737 825v-243h-274v-351q27 -6 108 -6q222 0 345.5 121.5t123.5 368.5q0 221 -114 331.5
t-322 110.5q-87 0 -141 -12v-320h274z" />
    <glyph glyph-name="Ntilde" unicode="&#xd1;" horiz-adv-x="1413" 
d="M422 0h-287v1380h365l286 -506q122 -216 226 -473h4q-25 253 -25 578v401h287v-1380h-328l-295 532q-149 267 -239 488h-8q14 -258 14 -604v-416zM567 1464h-143q-3 126 40 193t118 67q63 0 133 -41q63 -38 90 -38q26 0 37.5 18t17.5 70h139q3 -135 -37 -195.5
t-124 -60.5q-61 0 -133 39q-6 3 -17 9.5t-16.5 9t-14 6.5t-14 6t-13 3.5t-14.5 1.5q-43 0 -49 -88z" />
    <glyph glyph-name="Ograve" unicode="&#xd2;" horiz-adv-x="1468" 
d="M743 1405q155 0 281 -55.5t207 -151t124.5 -222t43.5 -271.5q0 -338 -185 -533t-493 -195q-199 0 -348 94.5t-225 253t-76 357.5q0 206 82 370t236 258.5t353 94.5zM737 1157q-156 0 -246 -131.5t-90 -337.5q0 -207 90.5 -335t245.5 -128q103 0 179 61.5t114.5 167
t38.5 240.5q0 127 -37.5 231t-114 168t-180.5 64zM385 1708h328l172 -250h-250z" />
    <glyph glyph-name="Oacute" unicode="&#xd3;" horiz-adv-x="1468" 
d="M743 1405q155 0 281 -55.5t207 -151t124.5 -222t43.5 -271.5q0 -338 -185 -533t-493 -195q-199 0 -348 94.5t-225 253t-76 357.5q0 206 82 370t236 258.5t353 94.5zM737 1157q-156 0 -246 -131.5t-90 -337.5q0 -207 90.5 -335t245.5 -128q103 0 179 61.5t114.5 167
t38.5 240.5q0 127 -37.5 231t-114 168t-180.5 64zM764 1708h328l-250 -252h-250z" />
    <glyph glyph-name="Ocircumflex" unicode="&#xd4;" horiz-adv-x="1468" 
d="M743 1405q155 0 281 -55.5t207 -151t124.5 -222t43.5 -271.5q0 -338 -185 -533t-493 -195q-199 0 -348 94.5t-225 253t-76 357.5q0 206 82 370t236 258.5t353 94.5zM737 1157q-156 0 -246 -131.5t-90 -337.5q0 -207 90.5 -335t245.5 -128q103 0 179 61.5t114.5 167
t38.5 240.5q0 127 -37.5 231t-114 168t-180.5 64zM618 1708h234l207 -252h-219l-103 127h-4l-102 -127h-217z" />
    <glyph glyph-name="Otilde" unicode="&#xd5;" horiz-adv-x="1468" 
d="M743 1405q155 0 281 -55.5t207 -151t124.5 -222t43.5 -271.5q0 -338 -185 -533t-493 -195q-199 0 -348 94.5t-225 253t-76 357.5q0 206 82 370t236 258.5t353 94.5zM737 1157q-156 0 -246 -131.5t-90 -337.5q0 -207 90.5 -335t245.5 -128q103 0 179 61.5t114.5 167
t38.5 240.5q0 127 -37.5 231t-114 168t-180.5 64zM592 1464h-143q-3 125 39.5 191.5t117.5 66.5q59 0 131 -39q66 -38 90 -38q27 0 38.5 18t17.5 70h139q3 -134 -37.5 -195t-122.5 -61q-59 0 -133 36q-7 4 -24 13.5t-24 13t-18.5 7t-21.5 3.5q-43 0 -49 -86z" />
    <glyph glyph-name="Odieresis" unicode="&#xd6;" horiz-adv-x="1468" 
d="M743 1405q155 0 281 -55.5t207 -151t124.5 -222t43.5 -271.5q0 -338 -185 -533t-493 -195q-199 0 -348 94.5t-225 253t-76 357.5q0 206 82 370t236 258.5t353 94.5zM737 1157q-156 0 -246 -131.5t-90 -337.5q0 -207 90.5 -335t245.5 -128q103 0 179 61.5t114.5 167
t38.5 240.5q0 127 -37.5 231t-114 168t-180.5 64zM522 1460q-58 0 -98.5 41t-40.5 98q0 60 40.5 101t100.5 41q57 0 96 -40.5t39 -101.5q0 -58 -39 -98.5t-98 -40.5zM946 1460q-59 0 -98 40.5t-39 98.5q0 60 39.5 101t99.5 41q59 0 98 -40.5t39 -101.5q0 -58 -39.5 -98.5
t-99.5 -40.5z" />
    <glyph glyph-name="multiply" unicode="&#xd7;" horiz-adv-x="1220" 
d="M82 942l133 135l395 -403l396 403l133 -135l-394 -403l394 -402l-135 -137l-394 401l-393 -401l-135 137l393 402z" />
    <glyph glyph-name="Oslash" unicode="&#xd8;" horiz-adv-x="1468" 
d="M315 -135l-168 131l115 176q-92 95 -141 229.5t-49 288.5q0 150 48.5 281.5t134 227.5t210.5 151t272 55q172 0 305 -74l113 166l178 -119l-114 -172q88 -95 134 -227t46 -279q0 -167 -50 -303.5t-138 -228t-209.5 -141.5t-264.5 -50q-160 0 -297 70zM440 438l459 672
q-70 51 -162 51q-163 0 -257.5 -130.5t-94.5 -338.5q0 -137 53 -254h2zM1036 930l-450 -660q58 -49 149 -49q161 0 255.5 130t94.5 343q0 127 -45 236h-4z" />
    <glyph glyph-name="Ugrave" unicode="&#xd9;" horiz-adv-x="1396" 
d="M135 1380h311v-792q0 -178 65 -269.5t185 -91.5q254 0 254 361v792h312v-774q0 -314 -150 -471.5t-426 -157.5q-267 0 -409 155.5t-142 477.5v770zM356 1708h328l172 -250h-250z" />
    <glyph glyph-name="Uacute" unicode="&#xda;" horiz-adv-x="1396" 
d="M135 1380h311v-792q0 -178 65 -269.5t185 -91.5q254 0 254 361v792h312v-774q0 -314 -150 -471.5t-426 -157.5q-267 0 -409 155.5t-142 477.5v770zM713 1706h327l-249 -252h-250z" />
    <glyph glyph-name="Ucircumflex" unicode="&#xdb;" horiz-adv-x="1396" 
d="M135 1380h311v-792q0 -178 65 -269.5t185 -91.5q254 0 254 361v792h312v-774q0 -314 -150 -471.5t-426 -157.5q-267 0 -409 155.5t-142 477.5v770zM602 1706h234l206 -252h-219l-102 127h-4l-103 -127h-217z" />
    <glyph glyph-name="Udieresis" unicode="&#xdc;" horiz-adv-x="1396" 
d="M135 1380h311v-792q0 -178 65 -269.5t185 -91.5q254 0 254 361v792h312v-774q0 -314 -150 -471.5t-426 -157.5q-267 0 -409 155.5t-142 477.5v770zM498 1460q-58 0 -99 41t-41 98q0 60 41 101t101 41q57 0 96 -40.5t39 -101.5q0 -58 -39 -98.5t-98 -40.5zM922 1460
q-59 0 -98.5 40.5t-39.5 98.5q0 60 40 101t100 41q59 0 98 -40.5t39 -101.5q0 -58 -39.5 -98.5t-99.5 -40.5z" />
    <glyph glyph-name="Yacute" unicode="&#xdd;" horiz-adv-x="1234" 
d="M766 0h-311v565l-437 815h359l139 -331q67 -155 107 -265h4q43 119 104 265l139 331h351l-455 -805v-575zM653 1704h328l-250 -252h-250z" />
    <glyph glyph-name="Thorn" unicode="&#xde;" horiz-adv-x="1187" 
d="M135 0v1380h307v-247q78 8 170 8q248 0 379 -111q133 -114 133 -299q0 -123 -42.5 -215.5t-117.5 -146.5t-170.5 -80.5t-209.5 -26.5q-70 0 -142 10v-272h-307zM442 893v-377q46 -12 129 -12q122 0 184 55t62 148q0 95 -62 145.5t-177 50.5q-94 0 -136 -10z" />
    <glyph glyph-name="germandbls" unicode="&#xdf;" horiz-adv-x="1228" 
d="M436 0h-311v883q0 320 158 465q135 129 368 129q190 0 315.5 -104.5t125.5 -274.5q0 -103 -48 -168q-59 -28 -88.5 -66t-29.5 -78q0 -34 16 -64.5t53 -70.5q33 -35 45 -48t40.5 -50.5t41 -65t24 -70t11.5 -87.5q0 -160 -109.5 -256.5t-302.5 -96.5q-139 0 -221 33l39 230
q60 -29 144 -29q64 0 100.5 29t36.5 75q0 36 -17.5 68t-56.5 74q-75 79 -100 117q-58 84 -58 174q0 78 43 144.5t123 108.5q15 35 15 74q0 71 -44 117.5t-116 46.5q-197 0 -197 -330v-909z" />
    <glyph glyph-name="agrave" unicode="&#xe0;" horiz-adv-x="1081" 
d="M958 592v-350q0 -164 17 -242h-281l-18 100h-6q-101 -123 -287 -123q-146 0 -235 91t-89 217q0 190 157 286.5t431 96.5v12q0 53 -39.5 92t-142.5 39q-73 0 -149 -22t-128 -54l-57 201q162 90 389 90q121 0 208.5 -33.5t136.5 -95t71 -136.5t22 -169zM657 365v108
q-290 0 -290 -158q0 -58 33.5 -88t88.5 -30q56 0 101.5 33t60.5 81q6 24 6 54zM207 1438h287l176 -312h-213z" />
    <glyph glyph-name="aacute" unicode="&#xe1;" horiz-adv-x="1081" 
d="M958 592v-350q0 -164 17 -242h-281l-18 100h-6q-101 -123 -287 -123q-146 0 -235 91t-89 217q0 190 157 286.5t431 96.5v12q0 53 -39.5 92t-142.5 39q-73 0 -149 -22t-128 -54l-57 201q162 90 389 90q121 0 208.5 -33.5t136.5 -95t71 -136.5t22 -169zM657 365v108
q-290 0 -290 -158q0 -58 33.5 -88t88.5 -30q56 0 101.5 33t60.5 81q6 24 6 54zM575 1438h287l-250 -312h-213z" />
    <glyph glyph-name="acircumflex" unicode="&#xe2;" horiz-adv-x="1081" 
d="M958 592v-350q0 -164 17 -242h-281l-18 100h-6q-101 -123 -287 -123q-146 0 -235 91t-89 217q0 190 157 286.5t431 96.5v12q0 53 -39.5 92t-142.5 39q-73 0 -149 -22t-128 -54l-57 201q162 90 389 90q121 0 208.5 -33.5t136.5 -95t71 -136.5t22 -169zM657 365v108
q-290 0 -290 -158q0 -58 33.5 -88t88.5 -30q56 0 101.5 33t60.5 81q6 24 6 54zM428 1438h211l203 -312h-203l-104 179h-5l-102 -179h-203z" />
    <glyph glyph-name="atilde" unicode="&#xe3;" horiz-adv-x="1081" 
d="M958 592v-350q0 -164 17 -242h-281l-18 100h-6q-101 -123 -287 -123q-146 0 -235 91t-89 217q0 190 157 286.5t431 96.5v12q0 53 -39.5 92t-142.5 39q-73 0 -149 -22t-128 -54l-57 201q162 90 389 90q121 0 208.5 -33.5t136.5 -95t71 -136.5t22 -169zM657 365v108
q-290 0 -290 -158q0 -58 33.5 -88t88.5 -30q56 0 101.5 33t60.5 81q6 24 6 54zM379 1143h-148q-4 126 42 197t126 71q49 0 133 -41q8 -4 23.5 -13t23.5 -13.5t19 -8.5t20 -4q26 0 38 19t16 71h143q8 -262 -168 -262q-12 0 -23 1t-22.5 4t-19.5 5.5t-20.5 7.5t-18 7.5
t-19.5 9t-18 8.5q-9 5 -23.5 13.5t-20 11t-15 5.5t-19.5 3q-43 0 -49 -92z" />
    <glyph glyph-name="adieresis" unicode="&#xe4;" horiz-adv-x="1081" 
d="M958 592v-350q0 -164 17 -242h-281l-18 100h-6q-101 -123 -287 -123q-146 0 -235 91t-89 217q0 190 157 286.5t431 96.5v12q0 53 -39.5 92t-142.5 39q-73 0 -149 -22t-128 -54l-57 201q162 90 389 90q121 0 208.5 -33.5t136.5 -95t71 -136.5t22 -169zM657 365v108
q-290 0 -290 -158q0 -58 33.5 -88t88.5 -30q56 0 101.5 33t60.5 81q6 24 6 54zM326 1139q-61 0 -103.5 42.5t-42.5 102.5q0 61 43 102t105 41q59 0 99 -41t40 -102t-40 -103t-101 -42zM758 1139h-4q-60 0 -101 42.5t-41 102.5q0 62 41.5 102.5t104.5 40.5q60 0 100.5 -41
t40.5 -102t-40 -103t-101 -42z" />
    <glyph glyph-name="aring" unicode="&#xe5;" horiz-adv-x="1081" 
d="M958 592v-350q0 -164 17 -242h-281l-18 100h-6q-101 -123 -287 -123q-146 0 -235 91t-89 217q0 190 157 286.5t431 96.5v12q0 53 -39.5 92t-142.5 39q-73 0 -149 -22t-128 -54l-57 201q162 90 389 90q121 0 208.5 -33.5t136.5 -95t71 -136.5t22 -169zM657 365v108
q-290 0 -290 -158q0 -58 33.5 -88t88.5 -30q57 0 102 32.5t60 81.5q6 24 6 54zM545 1104q-108 0 -173 56t-65 143q0 90 63.5 147t176.5 57q107 0 168 -56.5t61 -145.5q0 -88 -63.5 -144.5t-167.5 -56.5zM543 1206q43 0 68.5 29t25.5 70t-25.5 70.5t-70.5 29.5q-42 0 -66 -30
t-24 -72q0 -38 25.5 -67.5t66.5 -29.5z" />
    <glyph glyph-name="ae" unicode="&#xe6;" horiz-adv-x="1644" 
d="M1575 416h-633q3 -95 77 -151t193 -56q156 0 281 53l43 -209q-148 -76 -369 -76q-126 0 -228.5 47t-154.5 132h-6q-132 -179 -372 -179q-159 0 -253 90.5t-94 223.5q0 180 159.5 275.5t432.5 95.5v26q0 14 -8 31.5t-27 39t-60 36t-97 14.5q-71 0 -142.5 -22.5
t-123.5 -53.5l-62 197q170 94 354 94q236 0 330 -162h6q124 162 342 162q107 0 190 -43t132 -115t73.5 -158t24.5 -180q0 -12 -8 -112zM659 365v104q-135 2 -214.5 -36t-79.5 -120q0 -56 36 -86t91 -30q56 0 97.5 29.5t61.5 74.5q8 24 8 64zM940 627h356q1 28 -6 58t-24 62
t-53.5 53t-86.5 21q-88 0 -136 -63.5t-50 -130.5z" />
    <glyph glyph-name="ccedilla" unicode="&#xe7;" horiz-adv-x="923" 
d="M840 254l37 -229q-76 -39 -230 -45l-39 -72q65 -15 107.5 -56.5t42.5 -107.5q0 -68 -38 -112.5t-90.5 -61t-117.5 -16.5q-106 0 -172 38l39 127q54 -28 115 -28q73 0 73 51q0 31 -37.5 49t-123.5 27l81 172q-196 29 -307.5 162.5t-111.5 339.5q0 111 37.5 207
t108.5 168.5t181 114.5t246 42q135 0 238 -39l-50 -231q-69 30 -174 30q-122 0 -196 -78t-72 -202q0 -133 77.5 -208t194.5 -75q103 0 181 33z" />
    <glyph glyph-name="egrave" unicode="&#xe8;" horiz-adv-x="1081" 
d="M1010 401h-645q6 -92 86 -141t196 -49q152 0 277 43l41 -211q-149 -63 -363 -63q-253 0 -393.5 136t-140.5 373q0 98 31 191t90.5 171t159 125.5t224.5 47.5q94 0 170.5 -28.5t127 -76t85 -112.5t49.5 -135.5t15 -147.5q0 -66 -10 -123zM362 614h369q0 32 -8 64t-26 65
t-54.5 53.5t-87.5 20.5q-47 0 -84 -19.5t-59 -51.5t-34.5 -65.5t-15.5 -66.5zM246 1438h286l177 -312h-213z" />
    <glyph glyph-name="eacute" unicode="&#xe9;" horiz-adv-x="1081" 
d="M1010 401h-645q6 -92 86 -141t196 -49q152 0 277 43l41 -211q-149 -63 -363 -63q-253 0 -393.5 136t-140.5 373q0 98 31 191t90.5 171t159 125.5t224.5 47.5q94 0 170.5 -28.5t127 -76t85 -112.5t49.5 -135.5t15 -147.5q0 -66 -10 -123zM362 614h369q0 32 -8 64t-26 65
t-54.5 53.5t-87.5 20.5q-47 0 -84 -19.5t-59 -51.5t-34.5 -65.5t-15.5 -66.5zM614 1438h287l-250 -312h-213z" />
    <glyph glyph-name="ecircumflex" unicode="&#xea;" horiz-adv-x="1081" 
d="M1010 401h-645q6 -92 86 -141t196 -49q152 0 277 43l41 -211q-149 -63 -363 -63q-253 0 -393.5 136t-140.5 373q0 98 31 191t90.5 171t159 125.5t224.5 47.5q94 0 170.5 -28.5t127 -76t85 -112.5t49.5 -135.5t15 -147.5q0 -66 -10 -123zM362 614h369q0 32 -8 64t-26 65
t-54.5 53.5t-87.5 20.5q-47 0 -84 -19.5t-59 -51.5t-34.5 -65.5t-15.5 -66.5zM459 1438h209l202 -312h-202l-103 179h-4l-104 -179h-203z" />
    <glyph glyph-name="edieresis" unicode="&#xeb;" horiz-adv-x="1081" 
d="M1010 401h-645q6 -92 86 -141t196 -49q152 0 277 43l41 -211q-149 -63 -363 -63q-253 0 -393.5 136t-140.5 373q0 98 31 191t90.5 171t159 125.5t224.5 47.5q94 0 170.5 -28.5t127 -76t85 -112.5t49.5 -135.5t15 -147.5q0 -66 -10 -123zM362 614h369q0 32 -8 64t-26 65
t-54.5 53.5t-87.5 20.5q-47 0 -84 -19.5t-59 -51.5t-34.5 -65.5t-15.5 -66.5zM358 1139q-61 0 -103 42.5t-42 102.5q0 61 42.5 102t104.5 41q59 0 99.5 -41t40.5 -102t-40.5 -103t-101.5 -42zM791 1139h-5q-60 0 -100.5 42.5t-40.5 102.5q0 62 41.5 102.5t104.5 40.5
q60 0 100.5 -41t40.5 -102t-40 -103t-101 -42z" />
    <glyph glyph-name="igrave" unicode="&#xec;" horiz-adv-x="561" 
d="M436 0h-311v1001h311v-1001zM-61 1438h286l176 -312h-213z" />
    <glyph glyph-name="iacute" unicode="&#xed;" horiz-adv-x="561" 
d="M436 0h-311v1001h311v-1001zM326 1438h286l-250 -312h-212z" />
    <glyph glyph-name="icircumflex" unicode="&#xee;" horiz-adv-x="561" 
d="M436 0h-311v1001h311v-1001zM176 1438h211l203 -312h-203l-104 179h-4l-103 -179h-203z" />
    <glyph glyph-name="idieresis" unicode="&#xef;" horiz-adv-x="561" 
d="M436 0h-311v1001h311v-1001zM66 1139q-61 0 -103.5 42.5t-42.5 102.5q0 61 43 102t105 41q59 0 99 -41t40 -102t-40 -103t-101 -42zM498 1139h-4q-60 0 -101 42.5t-41 102.5q0 62 41.5 102.5t104.5 40.5q60 0 100.5 -41t40.5 -102t-40 -103t-101 -42z" />
    <glyph glyph-name="eth" unicode="&#xf0;" horiz-adv-x="1175" 
d="M590 201q94 0 145 80.5t51 214.5q0 155 -49 215q-54 67 -145 67q-55 0 -96.5 -27.5t-63.5 -72t-32.5 -92.5t-10.5 -99q0 -123 53 -204.5t148 -81.5zM219 979l-55 123l215 96q-64 42 -191 98l134 174q173 -62 323 -161l283 121l61 -119l-215 -94q161 -130 250 -310
q84 -164 84 -381q0 -110 -29 -202t-78.5 -155.5t-116.5 -107t-142 -64t-156 -20.5q-224 0 -371 139.5t-147 368.5q0 107 38 198t103 152t151 96.5t183 37.5q83 3 145 -41l4 6q-78 105 -178 172z" />
    <glyph glyph-name="ntilde" unicode="&#xf1;" horiz-adv-x="1200" 
d="M125 0v682q0 139 -8 319h270l14 -139h7q39 63 117.5 112.5t191.5 49.5q161 0 259.5 -109.5t98.5 -322.5v-592h-311v555q0 217 -158 217q-59 0 -99.5 -34t-60.5 -83q-10 -25 -10 -77v-578h-311zM457 1141h-148q-4 128 42 199t126 71q53 0 133 -41q9 -5 24.5 -13.5t24 -13
t19.5 -8.5t20 -4q26 0 38 19t16 71h143q8 -262 -168 -262q-12 0 -23 1t-22.5 4t-19.5 5.5t-20.5 7.5t-18 7.5t-19.5 9t-18 8.5q-8 4 -19.5 11t-17 9.5t-14 6t-15 5t-14.5 1.5q-43 0 -49 -94z" />
    <glyph glyph-name="ograve" unicode="&#xf2;" horiz-adv-x="1181" 
d="M604 1026q228 0 369 -143t141 -371q0 -133 -44.5 -237.5t-119.5 -168t-168 -96.5t-196 -33q-226 0 -372 140t-146 377q0 244 146 388t390 144zM594 803q-70 0 -118 -46t-67.5 -111.5t-19.5 -143.5q0 -133 54 -217t151 -84q92 0 145.5 83t53.5 220q0 78 -19.5 143.5
t-66 110.5t-113.5 45zM272 1438h287l176 -312h-213z" />
    <glyph glyph-name="oacute" unicode="&#xf3;" horiz-adv-x="1181" 
d="M604 1026q228 0 369 -143t141 -371q0 -133 -44.5 -237.5t-119.5 -168t-168 -96.5t-196 -33q-226 0 -372 140t-146 377q0 244 146 388t390 144zM594 803q-70 0 -118 -46t-67.5 -111.5t-19.5 -143.5q0 -133 54 -217t151 -84q92 0 145.5 83t53.5 220q0 78 -19.5 143.5
t-66 110.5t-113.5 45zM629 1438h286l-249 -312h-213z" />
    <glyph glyph-name="ocircumflex" unicode="&#xf4;" horiz-adv-x="1181" 
d="M604 1026q228 0 369 -143t141 -371q0 -133 -44.5 -237.5t-119.5 -168t-168 -96.5t-196 -33q-226 0 -372 140t-146 377q0 244 146 388t390 144zM594 803q-70 0 -118 -46t-67.5 -111.5t-19.5 -143.5q0 -133 54 -217t151 -84q92 0 145.5 83t53.5 220q0 78 -19.5 143.5
t-66 110.5t-113.5 45zM487 1438h209l203 -312h-203l-102 179h-4l-105 -179h-202z" />
    <glyph glyph-name="otilde" unicode="&#xf5;" horiz-adv-x="1181" 
d="M604 1026q228 0 369 -143t141 -371q0 -133 -44.5 -237.5t-119.5 -168t-168 -96.5t-196 -33q-226 0 -372 140t-146 377q0 244 146 388t390 144zM594 803q-70 0 -118 -46t-67.5 -111.5t-19.5 -143.5q0 -133 54 -217t151 -84q92 0 145.5 83t53.5 220q0 78 -19.5 143.5
t-66 110.5t-113.5 45zM446 1143h-147q-4 126 42 197t126 71q53 0 133 -41q8 -4 23.5 -13t23.5 -13.5t19 -8.5t20 -4q25 0 37 18.5t16 71.5h144q8 -262 -168 -262q-9 0 -18 0.5t-18.5 2.5t-15.5 3.5t-16.5 5t-14.5 5t-15.5 6.5t-13.5 6t-14.5 7.5t-13.5 6.5q-8 4 -19.5 10.5
t-17 9.5t-13.5 6.5t-14.5 5t-14.5 1.5q-44 0 -50 -92z" />
    <glyph glyph-name="odieresis" unicode="&#xf6;" horiz-adv-x="1181" 
d="M604 1026q228 0 369 -143t141 -371q0 -133 -44.5 -237.5t-119.5 -168t-168 -96.5t-196 -33q-226 0 -372 140t-146 377q0 244 146 388t390 144zM594 803q-70 0 -118 -46t-67.5 -111.5t-19.5 -143.5q0 -133 54 -217t151 -84q92 0 145.5 83t53.5 220q0 78 -19.5 143.5
t-66 110.5t-113.5 45zM375 1139q-61 0 -103.5 42.5t-42.5 102.5q0 61 43 102t105 41q59 0 99 -41t40 -102t-40 -103t-101 -42zM807 1139h-4q-60 0 -100.5 42.5t-40.5 102.5q0 62 41 102.5t104 40.5q60 0 100.5 -41t40.5 -102t-40 -103t-101 -42z" />
    <glyph glyph-name="divide" unicode="&#xf7;" horiz-adv-x="1220" 
d="M608 754q-66 0 -106.5 41.5t-40.5 109.5q0 69 41.5 110.5t107.5 41.5q67 0 107.5 -41.5t42.5 -110.5q0 -68 -41.5 -109.5t-110.5 -41.5zM1139 451h-1057v190h1057v-190zM608 35q-66 0 -106.5 41.5t-40.5 109.5q0 69 41.5 110.5t107.5 41.5q67 0 107.5 -41.5t42.5 -110.5
q0 -68 -41.5 -109.5t-110.5 -41.5z" />
    <glyph glyph-name="oslash" unicode="&#xf8;" horiz-adv-x="1181" 
d="M592 1026q133 0 242 -53l96 139l108 -76l-94 -137q81 -68 124.5 -169t43.5 -224q0 -129 -44.5 -232.5t-118.5 -167t-165.5 -96.5t-191.5 -33q-136 0 -238 54l-100 -146l-102 82l90 133q-174 144 -174 400q0 236 145 381t379 145zM408 340l292 426q-46 37 -112 37
q-58 0 -102.5 -27t-69.5 -72t-37 -96t-12 -106q0 -99 34 -160zM776 653l-291 -415q40 -37 105 -37q103 0 163 81t60 216q0 90 -33 155h-4z" />
    <glyph glyph-name="ugrave" unicode="&#xf9;" horiz-adv-x="1193" 
d="M1069 1001v-679q0 -154 8 -322h-270l-14 141h-7q-17 -27 -41 -52t-61.5 -52t-92 -43.5t-118.5 -16.5q-162 0 -257 107.5t-95 329.5v587h311v-538q0 -234 158 -234q59 0 99 33t56 76q13 29 13 68v595h311zM270 1438h287l176 -312h-213z" />
    <glyph glyph-name="uacute" unicode="&#xfa;" horiz-adv-x="1193" 
d="M1069 1001v-679q0 -154 8 -322h-270l-14 141h-7q-17 -27 -41 -52t-61.5 -52t-92 -43.5t-118.5 -16.5q-162 0 -257 107.5t-95 329.5v587h311v-538q0 -234 158 -234q59 0 99 33t56 76q13 29 13 68v595h311zM647 1438h287l-250 -312h-213z" />
    <glyph glyph-name="ucircumflex" unicode="&#xfb;" horiz-adv-x="1193" 
d="M1069 1001v-679q0 -154 8 -322h-270l-14 141h-7q-17 -27 -41 -52t-61.5 -52t-92 -43.5t-118.5 -16.5q-162 0 -257 107.5t-95 329.5v587h311v-538q0 -234 158 -234q59 0 99 33t56 76q13 29 13 68v595h311zM494 1438h211l202 -312h-202l-105 179h-4l-102 -179h-203z" />
    <glyph glyph-name="udieresis" unicode="&#xfc;" horiz-adv-x="1193" 
d="M1069 1001v-679q0 -154 8 -322h-270l-14 141h-7q-17 -27 -41 -52t-61.5 -52t-92 -43.5t-118.5 -16.5q-162 0 -257 107.5t-95 329.5v587h311v-538q0 -234 158 -234q59 0 99 33t56 76q13 29 13 68v595h311zM389 1139q-61 0 -103 42.5t-42 102.5q0 61 42.5 102t104.5 41
q59 0 99 -41t40 -102t-40 -103t-101 -42zM821 1139h-4q-60 0 -100.5 42.5t-40.5 102.5q0 62 41 102.5t104 40.5q60 0 101 -41t41 -102t-40.5 -103t-101.5 -42z" />
    <glyph glyph-name="yacute" unicode="&#xfd;" horiz-adv-x="1071" 
d="M12 1001h346l150 -493q36 -127 49 -186h8q18 84 43 188l125 491h332l-234 -659q-103 -287 -183 -432.5t-169 -224.5q-137 -121 -299 -138l-67 263q66 14 135 53q35 19 71 53.5t58 71.5q16 26 16 45q0 21 -12 51zM608 1438h287l-250 -312h-213z" />
    <glyph glyph-name="thorn" unicode="&#xfe;" horiz-adv-x="1224" 
d="M125 1384h311v-505h4q97 145 299 145q81 2 155 -32.5t132.5 -98t93.5 -163t35 -220.5q0 -107 -27 -197t-71.5 -151t-103.5 -103.5t-121.5 -62t-126.5 -19.5q-89 0 -157 31.5t-108 85.5h-4v-500h-311v1790zM436 582v-172q0 -52 29 -97q25 -44 68 -70t94 -26q97 0 155 78
t58 211q0 119 -55.5 196.5t-149.5 77.5q-59 0 -106 -30t-72 -84q-21 -48 -21 -84z" />
    <glyph glyph-name="ydieresis" unicode="&#xff;" horiz-adv-x="1071" 
d="M12 1001h346l150 -493q36 -127 49 -186h8q18 84 43 188l125 491h332l-234 -659q-103 -287 -183 -432.5t-169 -224.5q-137 -121 -299 -138l-67 263q66 14 135 53q35 19 71 53.5t58 71.5q16 26 16 45q0 21 -12 51zM344 1139q-61 0 -103 42.5t-42 102.5q0 61 42.5 102
t104.5 41q59 0 99 -41t40 -102t-40 -103t-101 -42zM776 1139h-4q-60 0 -100.5 42.5t-40.5 102.5q0 62 41 102.5t104 40.5q60 0 101 -41t41 -102t-40.5 -103t-101.5 -42z" />
    <glyph glyph-name="Amacron" unicode="&#x100;" horiz-adv-x="1343" 
d="M852 354h-395l-99 -354h-321l420 1380h409l430 -1380h-338zM502 588h305l-86 293q-26 84 -70 266h-4q-5 -19 -27.5 -119t-35.5 -147zM397 1669h531v-166h-531v166z" />
    <glyph glyph-name="amacron" unicode="&#x101;" horiz-adv-x="1081" 
d="M958 592v-350q0 -164 17 -242h-281l-18 100h-6q-101 -123 -287 -123q-146 0 -235 91t-89 217q0 190 157 286.5t431 96.5v12q0 53 -39.5 92t-142.5 39q-73 0 -149 -22t-128 -54l-57 201q162 90 389 90q121 0 208.5 -33.5t136.5 -95t71 -136.5t22 -169zM657 365v108
q-290 0 -290 -158q0 -58 33.5 -88t88.5 -30q56 0 101.5 33t60.5 81q6 24 6 54zM287 1364h512v-172h-512v172z" />
    <glyph glyph-name="Abreve" unicode="&#x102;" horiz-adv-x="1343" 
d="M852 354h-395l-99 -354h-321l420 1380h409l430 -1380h-338zM502 588h305l-86 293q-26 84 -70 266h-4q-5 -19 -27.5 -119t-35.5 -147zM379 1708h166q13 -94 121 -94q110 0 129 94h159q-3 -118 -74.5 -188t-213.5 -70q-144 0 -214 69.5t-73 188.5z" />
    <glyph glyph-name="abreve" unicode="&#x103;" horiz-adv-x="1081" 
d="M958 592v-350q0 -164 17 -242h-281l-18 100h-6q-101 -123 -287 -123q-146 0 -235 91t-89 217q0 190 157 286.5t431 96.5v12q0 53 -39.5 92t-142.5 39q-73 0 -149 -22t-128 -54l-57 201q162 90 389 90q121 0 208.5 -33.5t136.5 -95t71 -136.5t22 -169zM657 365v108
q-290 0 -290 -158q0 -58 33.5 -88t88.5 -30q56 0 101.5 33t60.5 81q6 24 6 54zM256 1417h162q17 -125 121 -125q59 0 90.5 35.5t34.5 89.5h161q-2 -133 -76 -212t-210 -79q-137 0 -209 81t-74 210z" />
    <glyph glyph-name="Aogonek" unicode="&#x104;" horiz-adv-x="1343" 
d="M866 1380l428 -1380l-166 -2q-51 -84 -51 -139q0 -51 31.5 -83t79.5 -32q43 0 90 14l43 -143q-39 -31 -97 -47.5t-112 -16.5q-108 0 -168.5 55.5t-60.5 162.5q0 106 75 233l-106 352h-395l-99 -354h-323l422 1380h409zM502 588h305l-86 293q-26 84 -70 266h-4
q-5 -19 -27.5 -119t-35.5 -147z" />
    <glyph glyph-name="aogonek" unicode="&#x105;" horiz-adv-x="1081" 
d="M958 592v-348q0 -166 17 -244h-111q-43 -80 -43 -145q0 -51 27.5 -79t71.5 -28q43 0 90 21l43 -148q-93 -70 -215 -70q-95 0 -153 54.5t-58 154.5q0 19 2.5 39t5 36t8.5 35.5t10 32t11.5 31t10.5 26t10.5 24t8.5 18.5l-18 98h-6q-101 -123 -287 -123q-146 0 -235 91
t-89 217q0 190 157 286.5t431 96.5v12q0 53 -39.5 92t-142.5 39q-73 0 -149 -22t-128 -54l-57 201q162 90 389 90q121 0 208.5 -33.5t136.5 -95t71 -136.5t22 -169zM657 365v108q-290 0 -290 -158q0 -58 33.5 -88t88.5 -30q56 0 101.5 33t60.5 81q6 24 6 54z" />
    <glyph glyph-name="Cacute" unicode="&#x106;" horiz-adv-x="1218" 
d="M1102 283l45 -246q-48 -23 -143 -41.5t-209 -18.5q-175 0 -313.5 53t-227.5 146.5t-135.5 219t-46.5 274.5q0 138 38 256.5t106.5 205t162.5 147.5t207 91.5t239 30.5q114 0 204 -18t136 -44l-65 -245q-115 51 -262 51q-194 0 -316.5 -118t-122.5 -339q0 -208 117.5 -329
t323.5 -121q157 0 262 45zM772 1708h328l-250 -252h-250z" />
    <glyph glyph-name="cacute" unicode="&#x107;" horiz-adv-x="923" 
d="M840 256l37 -229q-96 -47 -279 -47q-243 0 -386.5 138.5t-143.5 373.5q0 111 37.5 207t108.5 168.5t181 114.5t246 42q135 0 238 -39l-50 -231q-69 30 -174 30q-122 0 -196 -78t-72 -202q0 -132 78 -206.5t197 -74.5q100 0 178 33zM596 1438h287l-250 -312h-213z" />
    <glyph glyph-name="Ccircumflex" unicode="&#x108;" horiz-adv-x="1218" 
d="M1102 283l45 -246q-48 -23 -143 -41.5t-209 -18.5q-175 0 -313.5 53t-227.5 146.5t-135.5 219t-46.5 274.5q0 138 38 256.5t106.5 205t162.5 147.5t207 91.5t239 30.5q114 0 204 -18t136 -44l-65 -245q-115 51 -262 51q-194 0 -316.5 -118t-122.5 -339q0 -208 117.5 -329
t323.5 -121q157 0 262 45zM616 1714h234l207 -252h-219l-103 127h-4l-102 -127h-217z" />
    <glyph glyph-name="ccircumflex" unicode="&#x109;" horiz-adv-x="923" 
d="M840 256l37 -229q-96 -47 -279 -47q-243 0 -386.5 138.5t-143.5 373.5q0 111 37.5 207t108.5 168.5t181 114.5t246 42q135 0 238 -39l-50 -231q-69 30 -174 30q-122 0 -196 -78t-72 -202q0 -132 78 -206.5t197 -74.5q100 0 178 33zM438 1438h209l203 -312h-203l-102 179
h-4l-105 -179h-203z" />
    <glyph glyph-name="Cdotaccent" unicode="&#x10a;" horiz-adv-x="1218" 
d="M1102 283l45 -246q-48 -23 -143 -41.5t-209 -18.5q-175 0 -313.5 53t-227.5 146.5t-135.5 219t-46.5 274.5q0 138 38 256.5t106.5 205t162.5 147.5t207 91.5t239 30.5q114 0 204 -18t136 -44l-65 -245q-115 51 -262 51q-194 0 -316.5 -118t-122.5 -339q0 -208 117.5 -329
t323.5 -121q157 0 262 45zM735 1458q-59 0 -100 41.5t-41 97.5q0 60 41.5 101t101.5 41q58 0 97.5 -41t39.5 -101q0 -57 -40 -98t-99 -41z" />
    <glyph glyph-name="cdotaccent" unicode="&#x10b;" horiz-adv-x="923" 
d="M840 256l37 -229q-96 -47 -279 -47q-243 0 -386.5 138.5t-143.5 373.5q0 111 37.5 207t108.5 168.5t181 114.5t246 42q135 0 238 -39l-50 -231q-69 30 -174 30q-122 0 -196 -78t-72 -202q0 -132 78 -206.5t197 -74.5q100 0 178 33zM567 1141q-61 0 -102 42t-41 101
q0 63 41.5 104.5t103.5 41.5q60 0 100 -41.5t40 -104.5q0 -59 -40.5 -101t-101.5 -42z" />
    <glyph glyph-name="Ccaron" unicode="&#x10c;" horiz-adv-x="1218" 
d="M1102 283l45 -246q-48 -23 -143 -41.5t-209 -18.5q-175 0 -313.5 53t-227.5 146.5t-135.5 219t-46.5 274.5q0 138 38 256.5t106.5 205t162.5 147.5t207 91.5t239 30.5q114 0 204 -18t136 -44l-65 -245q-115 51 -262 51q-194 0 -316.5 -118t-122.5 -339q0 -208 117.5 -329
t323.5 -121q157 0 262 45zM858 1456h-233l-207 252h219l102 -127h4l103 127h217z" />
    <glyph glyph-name="ccaron" unicode="&#x10d;" horiz-adv-x="923" 
d="M840 256l37 -229q-96 -47 -279 -47q-243 0 -386.5 138.5t-143.5 373.5q0 111 37.5 207t108.5 168.5t181 114.5t246 42q135 0 238 -39l-50 -231q-69 30 -174 30q-122 0 -196 -78t-72 -202q0 -132 78 -206.5t197 -74.5q100 0 178 33zM657 1126h-213l-202 312h202l105 -178
h4l102 178h205z" />
    <glyph glyph-name="Dcaron" unicode="&#x10e;" horiz-adv-x="1425" 
d="M135 6v1354q198 31 420 31q194 0 330.5 -36.5t236.5 -111.5q234 -173 234 -520q0 -362 -228 -559q-213 -178 -639 -178q-202 0 -354 20zM446 1139v-903q31 -7 109 -7q220 -2 345.5 120.5t125.5 363.5q0 212 -116 325t-322 113q-88 0 -142 -12zM776 1454h-233l-207 252
h219l102 -127h5l102 127h217z" />
    <glyph glyph-name="dcaron" unicode="&#x10f;" horiz-adv-x="1241" 
d="M784 1454h312v-1155q0 -163 8 -299h-277l-12 145h-6q-45 -81 -129 -124.5t-184 -43.5q-182 0 -305 143t-123 372q-1 244 129.5 389t318.5 145q92 0 160.5 -30.5t103.5 -82.5h4v541zM784 446v132q0 39 -4 57q-14 64 -63.5 107.5t-118.5 43.5q-103 0 -159 -80t-56 -204
q0 -127 58 -202t155 -75q67 0 117.5 42t64.5 108q6 35 6 71zM1311 1016l-133 84q57 90 57 207q0 77 -41 139l195 33q27 -19 46 -62.5t19 -91.5q0 -183 -143 -309z" />
    <glyph glyph-name="Dcroat" unicode="&#x110;" horiz-adv-x="1441" 
d="M6 582v243h146v541q198 31 419 31q197 0 332.5 -35t233.5 -111q111 -82 172 -215t61 -311q0 -190 -61 -331.5t-166 -231.5q-212 -180 -637 -180q-183 0 -354 18v582h-146zM737 825v-243h-274v-351q27 -6 108 -6q222 0 345.5 121.5t123.5 368.5q0 221 -114 331.5
t-322 110.5q-87 0 -141 -12v-320h274z" />
    <glyph glyph-name="dcroat" unicode="&#x111;" horiz-adv-x="1220" 
d="M1262 1106h-166v-807q0 -163 8 -299h-277l-12 145h-6q-45 -81 -129 -124.5t-184 -43.5q-182 0 -305 143t-123 372q-1 244 129.5 389t318.5 145q92 0 160.5 -30.5t103.5 -82.5h4v193h-372v170h372v178h312v-178h166v-170zM784 446v132q0 39 -4 57q-14 64 -63.5 107.5
t-118.5 43.5q-103 0 -159 -80t-56 -204q0 -127 58 -202t155 -75q67 0 117.5 42t64.5 108q6 35 6 71z" />
    <glyph glyph-name="Emacron" unicode="&#x112;" horiz-adv-x="1093" 
d="M956 838v-254h-507v-328h567v-256h-879v1380h850v-256h-538v-286h507zM291 1669h530v-166h-530v166z" />
    <glyph glyph-name="emacron" unicode="&#x113;" horiz-adv-x="1081" 
d="M1010 401h-645q6 -92 86 -141t196 -49q152 0 277 43l41 -211q-149 -63 -363 -63q-253 0 -393.5 136t-140.5 373q0 98 31 191t90.5 171t159 125.5t224.5 47.5q94 0 170.5 -28.5t127 -76t85 -112.5t49.5 -135.5t15 -147.5q0 -66 -10 -123zM362 614h369q0 32 -8 64t-26 65
t-54.5 53.5t-87.5 20.5q-47 0 -84 -19.5t-59 -51.5t-34.5 -65.5t-15.5 -66.5zM291 1364h512v-172h-512v172z" />
    <glyph glyph-name="Ebreve" unicode="&#x114;" horiz-adv-x="1093" 
d="M956 838v-254h-507v-328h567v-256h-879v1380h850v-256h-538v-286h507zM279 1714h165q13 -94 121 -94t127 94h160q-3 -118 -74.5 -188t-212.5 -70q-144 0 -213.5 69.5t-72.5 188.5z" />
    <glyph glyph-name="ebreve" unicode="&#x115;" horiz-adv-x="1081" 
d="M1010 401h-645q6 -92 86 -141t196 -49q152 0 277 43l41 -211q-149 -63 -363 -63q-253 0 -393.5 136t-140.5 373q0 98 31 191t90.5 171t159 125.5t224.5 47.5q94 0 170.5 -28.5t127 -76t85 -112.5t49.5 -135.5t15 -147.5q0 -66 -10 -123zM362 614h369q0 32 -8 64t-26 65
t-54.5 53.5t-87.5 20.5q-47 0 -84 -19.5t-59 -51.5t-34.5 -65.5t-15.5 -66.5zM264 1417h162q17 -125 121 -125q59 0 90.5 35.5t34.5 89.5h162q-2 -133 -76.5 -212t-210.5 -79q-137 0 -209 81t-74 210z" />
    <glyph glyph-name="Edotaccent" unicode="&#x116;" horiz-adv-x="1093" 
d="M956 838v-254h-507v-328h567v-256h-879v1380h850v-256h-538v-286h507zM551 1460q-59 0 -100 41.5t-41 97.5q0 60 41.5 101t101.5 41q58 0 97.5 -41t39.5 -101q0 -57 -40 -98t-99 -41z" />
    <glyph glyph-name="edotaccent" unicode="&#x117;" horiz-adv-x="1081" 
d="M1010 401h-645q6 -92 86 -141t196 -49q152 0 277 43l41 -211q-149 -63 -363 -63q-253 0 -393.5 136t-140.5 373q0 98 31 191t90.5 171t159 125.5t224.5 47.5q94 0 170.5 -28.5t127 -76t85 -112.5t49.5 -135.5t15 -147.5q0 -66 -10 -123zM362 614h369q0 32 -8 64t-26 65
t-54.5 53.5t-87.5 20.5q-47 0 -84 -19.5t-59 -51.5t-34.5 -65.5t-15.5 -66.5zM553 1141q-61 0 -102 42t-41 101q0 63 41.5 104.5t103.5 41.5q60 0 99.5 -41.5t39.5 -104.5q0 -59 -40 -101t-101 -42z" />
    <glyph glyph-name="Eogonek" unicode="&#x118;" horiz-adv-x="1093" 
d="M989 -238l43 -147q-92 -64 -221 -64q-100 0 -156.5 50.5t-56.5 140.5q0 80 42.5 146.5t102.5 111.5h-606v1380h850v-256h-538v-286h507v-254h-507v-328h567v-256h-51q-57 -38 -98.5 -89.5t-41.5 -98.5q0 -31 21 -48.5t57 -17.5q47 0 86 16z" />
    <glyph glyph-name="eogonek" unicode="&#x119;" horiz-adv-x="1081" 
d="M862 -233l47 -144q-87 -69 -219 -69q-96 0 -152.5 47t-56.5 127q0 75 41.5 139.5t95.5 109.5v3h-26q-247 1 -385.5 137.5t-138.5 371.5q0 98 31 191t90.5 171t159 125.5t224.5 47.5q95 0 171.5 -28.5t127 -76t84.5 -112.5t49 -135.5t15 -147.5q0 -85 -10 -123h-645
q6 -92 86 -141t196 -49q152 0 277 43l41 -211q-16 -7 -46.5 -18t-41.5 -15q-62 -29 -119.5 -88t-57.5 -108q0 -33 20.5 -50.5t49.5 -17.5q45 0 92 21zM362 614h369q0 32 -8 64t-26 65t-54 53.5t-86 20.5q-47 0 -85 -19.5t-60 -51.5t-34.5 -65.5t-15.5 -66.5z" />
    <glyph glyph-name="Ecaron" unicode="&#x11a;" horiz-adv-x="1093" 
d="M956 838v-254h-507v-328h567v-256h-879v1380h850v-256h-538v-286h507zM672 1454h-234l-207 252h220l102 -127h4l102 127h218z" />
    <glyph glyph-name="ecaron" unicode="&#x11b;" horiz-adv-x="1081" 
d="M1010 401h-645q6 -92 86 -141t196 -49q152 0 277 43l41 -211q-149 -63 -363 -63q-253 0 -393.5 136t-140.5 373q0 98 31 191t90.5 171t159 125.5t224.5 47.5q94 0 170.5 -28.5t127 -76t85 -112.5t49.5 -135.5t15 -147.5q0 -66 -10 -123zM362 614h369q0 32 -8 64t-26 65
t-54.5 53.5t-87.5 20.5q-47 0 -84 -19.5t-59 -51.5t-34.5 -65.5t-15.5 -66.5zM653 1126h-213l-202 312h202l105 -178h4l102 178h205z" />
    <glyph glyph-name="Gcircumflex" unicode="&#x11c;" horiz-adv-x="1396" 
d="M1288 791v-728q-87 -30 -212 -53.5t-249 -23.5q-368 0 -561 184q-94 91 -144 221.5t-50 282.5q1 224 104 389t279.5 248.5t404.5 83.5q123 0 223.5 -19.5t159.5 -46.5l-65 -252q-130 60 -320 60q-204 0 -331.5 -115t-127.5 -332q0 -211 120.5 -331.5t316.5 -120.5
q106 0 151 18v291h-213v244h514zM647 1712h234l206 -252h-219l-102 127h-4l-103 -127h-217z" />
    <glyph glyph-name="gcircumflex" unicode="&#x11d;" horiz-adv-x="1198" 
d="M1073 702v-557q0 -317 -153 -450q-143 -123 -406 -123q-220 0 -360 76l61 237q53 -31 130.5 -53t160.5 -22q117 0 188.5 65.5t71.5 198.5v63h-4q-44 -62 -114 -95.5t-156 -33.5q-186 0 -305 136.5t-119 351.5q0 119 36 219t98 167t144.5 104.5t175.5 37.5q188 0 275 -143
h4l10 120h270q-8 -132 -8 -299zM762 446v148q0 30 -6 57q-18 63 -61.5 100t-106.5 37q-89 0 -147 -75.5t-58 -208.5q0 -116 54.5 -191t148.5 -75q61 0 106 34.5t60 89.5q10 31 10 84zM498 1440h209l202 -312h-202l-103 179h-4l-104 -179h-203z" />
    <glyph glyph-name="Gbreve" unicode="&#x11e;" horiz-adv-x="1396" 
d="M1288 791v-728q-87 -30 -212 -53.5t-249 -23.5q-368 0 -561 184q-94 91 -144 221.5t-50 282.5q1 224 104 389t279.5 248.5t404.5 83.5q123 0 223.5 -19.5t159.5 -46.5l-65 -252q-130 60 -320 60q-204 0 -331.5 -115t-127.5 -332q0 -211 120.5 -331.5t316.5 -120.5
q106 0 151 18v291h-213v244h514zM485 1722h166q13 -94 121 -94q110 0 129 94h160q-3 -118 -75 -188t-214 -70q-144 0 -214 69.5t-73 188.5z" />
    <glyph glyph-name="gbreve" unicode="&#x11f;" horiz-adv-x="1198" 
d="M1073 702v-557q0 -317 -153 -450q-143 -123 -406 -123q-220 0 -360 76l61 237q53 -31 130.5 -53t160.5 -22q117 0 188.5 65.5t71.5 198.5v63h-4q-44 -62 -114 -95.5t-156 -33.5q-186 0 -305 136.5t-119 351.5q0 119 36 219t98 167t144.5 104.5t175.5 37.5q188 0 275 -143
h4l10 120h270q-8 -132 -8 -299zM762 446v148q0 30 -6 57q-18 63 -61.5 100t-106.5 37q-89 0 -147 -75.5t-58 -208.5q0 -116 54.5 -191t148.5 -75q61 0 106 34.5t60 89.5q10 31 10 84zM313 1417h162q17 -125 121 -125q59 0 90.5 35.5t34.5 89.5h162q-2 -133 -76.5 -212
t-210.5 -79q-137 0 -209 81t-74 210z" />
    <glyph glyph-name="Gdotaccent" unicode="&#x120;" horiz-adv-x="1396" 
d="M1288 791v-728q-87 -30 -212 -53.5t-249 -23.5q-368 0 -561 184q-94 91 -144 221.5t-50 282.5q1 224 104 389t279.5 248.5t404.5 83.5q123 0 223.5 -19.5t159.5 -46.5l-65 -252q-130 60 -320 60q-204 0 -331.5 -115t-127.5 -332q0 -211 120.5 -331.5t316.5 -120.5
q106 0 151 18v291h-213v244h514zM768 1458q-59 0 -100 41.5t-41 97.5q0 60 41.5 101t101.5 41q58 0 97.5 -41t39.5 -101q0 -57 -40 -98t-99 -41z" />
    <glyph glyph-name="gdotaccent" unicode="&#x121;" horiz-adv-x="1198" 
d="M1073 702v-557q0 -317 -153 -450q-143 -123 -406 -123q-220 0 -360 76l61 237q53 -31 130.5 -53t160.5 -22q117 0 188.5 65.5t71.5 198.5v63h-4q-44 -62 -114 -95.5t-156 -33.5q-186 0 -305 136.5t-119 351.5q0 119 36 219t98 167t144.5 104.5t175.5 37.5q188 0 275 -143
h4l10 120h270q-8 -132 -8 -299zM762 446v148q0 30 -6 57q-18 63 -61.5 100t-106.5 37q-89 0 -147 -75.5t-58 -208.5q0 -116 54.5 -191t148.5 -75q61 0 106 34.5t60 89.5q10 31 10 84zM594 1143q-61 0 -102 42t-41 101q0 63 41.5 104.5t103.5 41.5q60 0 99.5 -41.5
t39.5 -104.5q0 -59 -40 -101t-101 -42z" />
    <glyph glyph-name="Gcommaaccent" unicode="&#x122;" horiz-adv-x="1396" 
d="M1288 791v-728q-87 -30 -212 -53.5t-249 -23.5q-368 0 -561 184q-94 91 -144 221.5t-50 282.5q1 224 104 389t279.5 248.5t404.5 83.5q123 0 223.5 -19.5t159.5 -46.5l-65 -252q-130 60 -320 60q-204 0 -331.5 -115t-127.5 -332q0 -211 120.5 -331.5t316.5 -120.5
q106 0 151 18v291h-213v244h514zM590 -496l-47 134q56 10 95.5 42.5t39.5 81.5q0 57 -60 121l216 37q34 -25 56.5 -68t22.5 -94q0 -121 -90 -185t-233 -69z" />
    <glyph glyph-name="gcommaaccent" unicode="&#x123;" horiz-adv-x="1198" 
d="M1073 702v-557q0 -317 -153 -450q-143 -123 -406 -123q-220 0 -360 76l61 237q53 -31 130.5 -53t160.5 -22q117 0 188.5 65.5t71.5 198.5v63h-4q-44 -62 -114 -95.5t-156 -33.5q-186 0 -305 136.5t-119 351.5q0 119 36 219t98 167t144.5 104.5t175.5 37.5q188 0 275 -143
h4l10 120h270q-8 -132 -8 -299zM762 446v148q0 30 -6 57q-18 63 -61.5 100t-106.5 37q-89 0 -147 -75.5t-58 -208.5q0 -116 54.5 -191t148.5 -75q61 0 106 34.5t60 89.5q10 31 10 84zM750 1483l45 -111q-66 -10 -107 -41t-41 -82q0 -54 62 -112l-203 -33q-33 22 -56.5 62
t-23.5 85q0 112 90 169.5t234 62.5z" />
    <glyph glyph-name="Hcircumflex" unicode="&#x124;" horiz-adv-x="1411" 
d="M137 1380h312v-530h514v530h311v-1380h-311v578h-514v-578h-312v1380zM588 1706h233l207 -252h-219l-102 127h-5l-102 -127h-217z" />
    <glyph glyph-name="hcircumflex" unicode="&#x125;" horiz-adv-x="1200" 
d="M125 0v1454h311v-573h4q48 66 123 104q73 39 162 39q157 0 253.5 -111t96.5 -329v-584h-311v551q0 221 -162 221q-57 0 -97 -31.5t-59 -78.5q-10 -22 -10 -68v-594h-311zM174 1755h234l206 -252h-219l-102 127h-4l-103 -127h-217z" />
    <glyph glyph-name="Hbar" unicode="&#x126;" horiz-adv-x="1435" 
d="M1417 965h-131v-965h-311v524h-516v-524h-312v965h-131v184h131v231h312v-231h516v231h311v-231h131v-184zM975 797v168h-516v-168h516z" />
    <glyph glyph-name="hbar" unicode="&#x127;" horiz-adv-x="1200" 
d="M1075 0h-311v551q0 221 -162 221q-57 0 -97 -31.5t-59 -78.5q-10 -22 -10 -68v-594h-311v1106h-160v170h160v178h311v-178h375v-170h-375v-225h4q45 61 123 104q80 39 162 39q157 0 253.5 -111t96.5 -329v-584z" />
    <glyph glyph-name="Itilde" unicode="&#x128;" horiz-adv-x="583" 
d="M137 1380h312v-1380h-312v1380zM150 1464h-144q-3 126 40 193t118 67q65 0 131 -41q66 -38 90 -38q26 0 37.5 18t17.5 70h140q3 -134 -37.5 -195t-122.5 -61q-61 0 -133 39q-7 4 -20 11.5t-19 10.5t-15.5 7t-17.5 5.5t-16 1.5q-43 0 -49 -88z" />
    <glyph glyph-name="itilde" unicode="&#x129;" horiz-adv-x="561" 
d="M436 0h-311v1001h311v-1001zM137 1141h-147q-4 128 42 199t126 71q49 0 133 -41q8 -4 23.5 -13t23.5 -13.5t19 -8.5t20 -4q25 0 37 18.5t16 71.5h143q8 -262 -167 -262q-12 0 -23 1t-23 4t-19.5 5t-21 8t-18 7.5t-20 9t-17.5 8.5q-9 5 -23.5 13.5t-20 11t-15 5.5t-19.5 3
q-43 0 -49 -94z" />
    <glyph glyph-name="Imacron" unicode="&#x12a;" horiz-adv-x="583" 
d="M137 1380h312v-1380h-312v1380zM27 1669h530v-166h-530v166z" />
    <glyph glyph-name="imacron" unicode="&#x12b;" horiz-adv-x="561" 
d="M436 0h-311v1001h311v-1001zM25 1364h512v-172h-512v172z" />
    <glyph glyph-name="Ibreve" unicode="&#x12c;" horiz-adv-x="583" 
d="M137 1380h312v-1380h-312v1380zM4 1718h166q13 -94 121 -94q110 0 129 94h160q-3 -118 -75 -188t-214 -70q-144 0 -214 69.5t-73 188.5z" />
    <glyph glyph-name="ibreve" unicode="&#x12d;" horiz-adv-x="561" 
d="M436 0h-311v1001h311v-1001zM-2 1417h162q17 -125 121 -125q59 0 90.5 35.5t34.5 89.5h161q-2 -133 -76 -212t-210 -79q-137 0 -209 81t-74 210z" />
    <glyph glyph-name="Iogonek" unicode="&#x12e;" horiz-adv-x="583" 
d="M449 1380v-1380h-142q-45 -79 -45 -141q0 -52 31.5 -83.5t79.5 -31.5q55 0 90 14l43 -143q-39 -32 -96.5 -49t-112.5 -17q-108 0 -168.5 55.5t-60.5 162.5q0 98 69 233v1380h312z" />
    <glyph glyph-name="iogonek" unicode="&#x12f;" horiz-adv-x="561" 
d="M279 1128q-75 0 -121.5 46.5t-46.5 115.5q0 70 47 116t123 46q77 0 124.5 -46t47.5 -116q0 -69 -48 -115.5t-126 -46.5zM436 1001v-1001h-139q-45 -79 -45 -141q0 -51 31 -83t79 -32q56 0 91 14l43 -143q-39 -32 -96.5 -49t-112.5 -17q-108 0 -169 56t-61 164
q0 15 1.5 31t5 32t7 30t9 29.5t9.5 26.5t10.5 26t9.5 21.5l9 19.5t7 15v1001h311z" />
    <glyph glyph-name="Idotaccent" unicode="&#x130;" horiz-adv-x="583" 
d="M137 1380h312v-1380h-312v1380zM293 1460q-59 0 -100 41.5t-41 97.5q0 60 41.5 101t101.5 41q58 0 97.5 -41t39.5 -101q0 -57 -40 -98t-99 -41z" />
    <glyph glyph-name="dotlessi" unicode="&#x131;" horiz-adv-x="561" 
d="M436 0h-311v1001h311v-1001z" />
    <glyph glyph-name="IJ" unicode="&#x132;" horiz-adv-x="1425" 
d="M137 1380h312v-1380h-312v1380zM989 512v868h311v-872q0 -283 -125.5 -407t-363.5 -124q-128 0 -229 33l34 252q74 -24 160 -24q106 0 159.5 60.5t53.5 213.5z" />
    <glyph glyph-name="ij" unicode="&#x133;" horiz-adv-x="1157" 
d="M436 0h-311v1001h311v-1001zM283 1436q73 0 117 -44t46 -112q0 -67 -45.5 -111.5t-121.5 -44.5q-72 0 -117 45t-45 111q0 67 46 111.5t120 44.5zM512 -440l-31 243q132 10 185 66q34 36 47.5 107t13.5 219v806h311v-880q0 -162 -34.5 -267t-106.5 -171
q-132 -123 -385 -123zM883 1436q73 0 117.5 -44t46.5 -112q0 -66 -46 -111t-122 -45q-72 0 -117 45t-45 111q0 67 46 111.5t120 44.5z" />
    <glyph glyph-name="Jcircumflex" unicode="&#x134;" horiz-adv-x="841" 
d="M406 510v870h311v-872q0 -283 -126 -407t-364 -124q-128 0 -229 33l35 252q74 -24 160 -24q106 0 159.5 60.5t53.5 211.5zM440 1706h234l207 -252h-219l-103 127h-4l-102 -127h-217z" />
    <glyph glyph-name="jcircumflex" unicode="&#x135;" horiz-adv-x="595" 
d="M-49 -440l-31 243q131 10 184 66q34 36 48 107.5t14 218.5v806h311v-882q0 -160 -34.5 -265t-106.5 -171q-132 -123 -385 -123zM201 1432h209l202 -312h-202l-103 178h-4l-104 -178h-203z" />
    <glyph glyph-name="Kcommaaccent" unicode="&#x136;" horiz-adv-x="1257" 
d="M135 0v1380h309v-610h5q42 72 96 152l311 458h385l-457 -587l480 -793h-363l-340 596l-117 -145v-451h-309zM494 -494l-48 134q56 10 96 42.5t40 81.5q0 57 -60 121l215 37q34 -26 57 -68.5t23 -93.5q0 -121 -90 -185t-233 -69z" />
    <glyph glyph-name="kcommaaccent" unicode="&#x137;" horiz-adv-x="1110" 
d="M436 1454v-874h4q34 64 72 120l203 301h375l-359 -405l410 -596h-383l-244 412l-78 -99v-313h-311v1454h311zM416 -496l-47 134q56 10 95.5 42.5t39.5 81.5q0 57 -60 121l215 37q34 -26 57 -68.5t23 -93.5q0 -121 -90 -185t-233 -69z" />
    <glyph glyph-name="kgreenlandic" unicode="&#x138;" horiz-adv-x="1110" 
d="M436 1001v-421h4q34 64 72 120l203 301h375l-359 -405l410 -596h-383l-244 412l-78 -99v-313h-311v1001h311z" />
    <glyph glyph-name="Lacute" unicode="&#x139;" horiz-adv-x="1046" 
d="M137 0v1380h312v-1118h548v-262h-860zM338 1706h328l-250 -252h-250z" />
    <glyph glyph-name="lacute" unicode="&#x13a;" horiz-adv-x="563" 
d="M125 0v1454h311v-1454h-311zM297 1767h328l-250 -251h-250z" />
    <glyph glyph-name="Lcommaaccent" unicode="&#x13b;" horiz-adv-x="1046" 
d="M137 0v1380h312v-1118h548v-262h-860zM389 -496l-47 134q56 10 95.5 42.5t39.5 81.5q0 58 -59 121l215 37q34 -26 57 -68.5t23 -93.5q0 -121 -90.5 -185t-233.5 -69z" />
    <glyph glyph-name="lcommaaccent" unicode="&#x13c;" horiz-adv-x="563" 
d="M125 0v1454h311v-1454h-311zM121 -496l-47 134q56 10 95.5 42.5t39.5 81.5q0 58 -59 121l215 37q34 -25 56.5 -68t22.5 -94q0 -121 -90 -185t-233 -69z" />
    <glyph glyph-name="Lcaron" unicode="&#x13d;" horiz-adv-x="1046" 
d="M137 0v1380h312v-1118h548v-262h-860zM602 991l-47 133q57 12 96 44t39 81q0 55 -59 123l215 35q34 -26 57 -68t23 -94q0 -121 -90.5 -185t-233.5 -69z" />
    <glyph glyph-name="lcaron" unicode="&#x13e;" horiz-adv-x="583" 
d="M125 0v1454h311v-1454h-311zM657 1014l-145 84q57 105 57 209q0 77 -41 139l195 33q27 -20 46 -65t19 -99q0 -49 -12 -95.5t-23.5 -73.5t-36.5 -61.5t-31.5 -41t-27.5 -29.5z" />
    <glyph glyph-name="Ldot" unicode="&#x13f;" horiz-adv-x="1046" 
d="M137 0v1380h312v-1118h548v-262h-860zM784 635q-59 0 -100 41.5t-41 97.5q0 60 41.5 100.5t101.5 40.5q59 0 98.5 -40.5t39.5 -100.5q0 -56 -40.5 -97.5t-99.5 -41.5z" />
    <glyph glyph-name="ldot" unicode="&#x140;" horiz-adv-x="724" 
d="M125 0v1454h311v-1454h-311zM645 676q-56 0 -94.5 40.5t-38.5 98.5q0 60 39 99.5t96 39.5q54 0 90.5 -39.5t36.5 -99.5q0 -58 -37 -98.5t-92 -40.5z" />
    <glyph glyph-name="Lslash" unicode="&#x141;" horiz-adv-x="1058" 
d="M1010 0h-860v481l-154 -104v215l154 106v682h311v-475l258 174v-217l-258 -174v-426h549v-262z" />
    <glyph glyph-name="lslash" unicode="&#x142;" horiz-adv-x="587" 
d="M449 0h-312v469l-133 -104v223l133 104v762h312v-530l145 116v-223l-145 -117v-700z" />
    <glyph glyph-name="Nacute" unicode="&#x143;" horiz-adv-x="1413" 
d="M422 0h-287v1380h365l286 -506q122 -216 226 -473h4q-25 253 -25 578v401h287v-1380h-328l-295 532q-149 267 -239 488h-8q14 -258 14 -604v-416zM721 1706h328l-250 -252h-250z" />
    <glyph glyph-name="nacute" unicode="&#x144;" horiz-adv-x="1200" 
d="M125 0v682q0 139 -8 319h270l14 -139h7q39 63 117.5 112.5t191.5 49.5q161 0 259.5 -109.5t98.5 -322.5v-592h-311v555q0 217 -158 217q-59 0 -99.5 -34t-60.5 -83q-10 -25 -10 -77v-578h-311zM623 1438h288l-249 -312h-213z" />
    <glyph glyph-name="Ncommaaccent" unicode="&#x145;" horiz-adv-x="1413" 
d="M422 0h-287v1380h365l286 -506q122 -216 226 -473h4q-25 253 -25 578v401h287v-1380h-328l-295 532q-149 267 -239 488h-8q14 -258 14 -604v-416zM565 -492l-45 134q56 10 95.5 43t39.5 82q0 57 -59 120l215 37q34 -26 57 -68.5t23 -93.5q0 -121 -91 -185t-235 -69z" />
    <glyph glyph-name="ncommaaccent" unicode="&#x146;" horiz-adv-x="1200" 
d="M125 0v682q0 139 -8 319h270l14 -139h7q39 63 117.5 112.5t191.5 49.5q161 0 259.5 -109.5t98.5 -322.5v-592h-311v555q0 217 -158 217q-59 0 -99.5 -34t-60.5 -83q-10 -25 -10 -77v-578h-311zM459 -494l-47 134q56 10 95.5 42.5t39.5 81.5q0 57 -60 121l215 37
q34 -26 57 -68.5t23 -93.5q0 -121 -90 -185t-233 -69z" />
    <glyph glyph-name="Ncaron" unicode="&#x147;" horiz-adv-x="1413" 
d="M422 0h-287v1380h365l286 -506q122 -216 226 -473h4q-25 253 -25 578v401h287v-1380h-328l-295 532q-149 267 -239 488h-8q14 -258 14 -604v-416zM831 1450h-233l-207 252h219l103 -127h4l102 127h217z" />
    <glyph glyph-name="ncaron" unicode="&#x148;" horiz-adv-x="1200" 
d="M125 0v682q0 139 -8 319h270l14 -139h7q39 63 117.5 112.5t191.5 49.5q161 0 259.5 -109.5t98.5 -322.5v-592h-311v555q0 217 -158 217q-59 0 -99.5 -34t-60.5 -83q-10 -25 -10 -77v-578h-311zM705 1126h-213l-203 312h203l104 -178h4l102 178h205z" />
    <glyph glyph-name="napostrophe" unicode="&#x149;" horiz-adv-x="1200" 
d="M125 0v682q0 139 -8 319h270l14 -139h7q39 63 117.5 112.5t191.5 49.5q161 0 259.5 -109.5t98.5 -322.5v-592h-311v555q0 217 -158 217q-59 0 -99.5 -34t-60.5 -83q-10 -25 -10 -77v-578h-311zM156 1073l-140 84q64 95 64 178q0 65 -41 113l199 51q25 -17 45 -59.5
t20 -96.5q0 -146 -147 -270z" />
    <glyph glyph-name="Eng" unicode="&#x14a;" horiz-adv-x="1413" 
d="M422 0h-287v1380h365l286 -506q122 -216 226 -473h4q-25 253 -25 578v401h287v-1282q0 -253 -123 -383t-344 -155l-68 235q104 25 159.5 66.5t68.5 107.5l-316 563q-149 267 -239 488h-8q14 -258 14 -604v-416z" />
    <glyph glyph-name="eng" unicode="&#x14b;" horiz-adv-x="1200" 
d="M125 0v682q0 139 -8 319h270l14 -139h7q39 63 117.5 112.5t191.5 49.5q161 0 259.5 -109.5t98.5 -322.5v-471q0 -471 -424 -520l-61 241q92 17 133 70.5t41 159.5v483q0 217 -158 217q-59 0 -99.5 -34t-60.5 -83q-10 -25 -10 -77v-578h-311z" />
    <glyph glyph-name="Omacron" unicode="&#x14c;" horiz-adv-x="1468" 
d="M743 1405q155 0 281 -55.5t207 -151t124.5 -222t43.5 -271.5q0 -338 -185 -533t-493 -195q-199 0 -348 94.5t-225 253t-76 357.5q0 206 82 370t236 258.5t353 94.5zM737 1157q-156 0 -246 -131.5t-90 -337.5q0 -207 90.5 -335t245.5 -128q103 0 179 61.5t114.5 167
t38.5 240.5q0 127 -37.5 231t-114 168t-180.5 64zM471 1673h530v-166h-530v166z" />
    <glyph glyph-name="omacron" unicode="&#x14d;" horiz-adv-x="1181" 
d="M604 1026q228 0 369 -143t141 -371q0 -133 -44.5 -237.5t-119.5 -168t-168 -96.5t-196 -33q-226 0 -372 140t-146 377q0 244 146 388t390 144zM594 803q-70 0 -118 -46t-67.5 -111.5t-19.5 -143.5q0 -133 54 -217t151 -84q92 0 145.5 83t53.5 220q0 78 -19.5 143.5
t-66 110.5t-113.5 45zM336 1364h512v-172h-512v172z" />
    <glyph glyph-name="Obreve" unicode="&#x14e;" horiz-adv-x="1468" 
d="M743 1405q155 0 281 -55.5t207 -151t124.5 -222t43.5 -271.5q0 -338 -185 -533t-493 -195q-199 0 -348 94.5t-225 253t-76 357.5q0 206 82 370t236 258.5t353 94.5zM737 1157q-156 0 -246 -131.5t-90 -337.5q0 -207 90.5 -335t245.5 -128q103 0 179 61.5t114.5 167
t38.5 240.5q0 127 -37.5 231t-114 168t-180.5 64zM446 1726h166q13 -94 121 -94q110 0 129 94h160q-3 -118 -75 -188t-214 -70q-144 0 -214 69.5t-73 188.5z" />
    <glyph glyph-name="obreve" unicode="&#x14f;" horiz-adv-x="1181" 
d="M604 1026q228 0 369 -143t141 -371q0 -133 -44.5 -237.5t-119.5 -168t-168 -96.5t-196 -33q-226 0 -372 140t-146 377q0 244 146 388t390 144zM594 803q-70 0 -118 -46t-67.5 -111.5t-19.5 -143.5q0 -133 54 -217t151 -84q92 0 145.5 83t53.5 220q0 78 -19.5 143.5
t-66 110.5t-113.5 45zM305 1417h162q17 -125 121 -125q59 0 90.5 35.5t34.5 89.5h161q-2 -133 -76 -212t-210 -79q-137 0 -209 81t-74 210z" />
    <glyph glyph-name="Ohungarumlaut" unicode="&#x150;" horiz-adv-x="1468" 
d="M743 1405q155 0 281 -55.5t207 -151t124.5 -222t43.5 -271.5q0 -338 -185 -533t-493 -195q-199 0 -348 94.5t-225 253t-76 357.5q0 206 82 370t236 258.5t353 94.5zM737 1157q-156 0 -246 -131.5t-90 -337.5q0 -207 90.5 -335t245.5 -128q103 0 179 61.5t114.5 167
t38.5 240.5q0 127 -37.5 231t-114 168t-180.5 64zM578 1710h288l-207 -237h-215zM950 1710h287l-207 -237h-215z" />
    <glyph glyph-name="ohungarumlaut" unicode="&#x151;" horiz-adv-x="1181" 
d="M604 1026q228 0 369 -143t141 -371q0 -133 -44.5 -237.5t-119.5 -168t-168 -96.5t-196 -33q-226 0 -372 140t-146 377q0 244 146 388t390 144zM594 803q-70 0 -118 -46t-67.5 -111.5t-19.5 -143.5q0 -133 54 -217t151 -84q92 0 145.5 83t53.5 220q0 78 -19.5 143.5
t-66 110.5t-113.5 45zM408 1436h245l-198 -306h-176zM764 1436h246l-201 -306h-176z" />
    <glyph glyph-name="OE" unicode="&#x152;" horiz-adv-x="1916" 
d="M1837 256v-256h-778q-31 0 -125 -12q-129 -11 -170 -11q-138 0 -252.5 37t-195 102t-136 154t-82 192t-26.5 216q0 331 191.5 529t506.5 198q86 0 184 -12q111 -13 129 -13h725v-256h-538v-286h508v-254h-508v-328h567zM958 250v878q-63 29 -161 29q-81 0 -152.5 -31
t-126 -88.5t-86 -147t-31.5 -200.5q0 -209 110.5 -337t307.5 -128q84 0 139 25z" />
    <glyph glyph-name="oe" unicode="&#x153;" horiz-adv-x="1777" 
d="M1710 408h-633q6 -90 83.5 -144.5t189.5 -54.5q138 0 278 53l43 -209q-138 -76 -364 -76q-246 0 -369 179h-6q-61 -89 -159.5 -134t-215.5 -45q-209 0 -349 142t-140 381q0 235 143 380.5t367 145.5q113 0 208 -46t144 -132h4q59 87 150 132.5t198 45.5q92 0 166.5 -29
t124 -77t83 -113t48 -135t14.5 -146q0 -38 -8 -118zM592 803q-56 0 -97 -27t-63.5 -72t-32.5 -95.5t-10 -106.5q0 -132 53.5 -216.5t147.5 -84.5t146 82t52 221q0 127 -49.5 213t-146.5 86zM1073 618h357q0 32 -6.5 62t-23.5 63.5t-54 53.5t-91 20q-59 0 -102 -34t-61 -77.5
t-19 -87.5z" />
    <glyph glyph-name="Racute" unicode="&#x154;" horiz-adv-x="1214" 
d="M135 0v1362q181 29 416 29q309 0 446 -109q129 -101 129 -291q0 -122 -72 -212t-171 -126v-6q128 -52 184 -256q12 -43 39 -149.5t43.5 -162t28.5 -79.5h-320q-38 78 -94 322q-19 87 -48 134.5t-70.5 66.5t-108.5 20h-93v-543h-309zM444 1147v-379h123q116 0 182 53.5
t66 145.5q0 93 -60 141.5t-169 48.5q-104 0 -142 -10zM604 1708h328l-250 -252h-250z" />
    <glyph glyph-name="racute" unicode="&#x155;" horiz-adv-x="778" 
d="M125 0v672q0 214 -8 329h266l12 -184h8q36 103 112.5 156t158.5 53q30 0 65 -6v-293q-50 8 -84 8q-85 0 -141.5 -42t-71.5 -115q-6 -30 -6 -70v-508h-311zM432 1438h289l-250 -312h-213z" />
    <glyph glyph-name="Rcommaaccent" unicode="&#x156;" horiz-adv-x="1214" 
d="M135 0v1362q181 29 416 29q309 0 446 -109q129 -101 129 -291q0 -122 -72 -212t-171 -126v-6q128 -52 184 -256q12 -43 39 -149.5t43.5 -162t28.5 -79.5h-320q-38 78 -94 322q-19 87 -48 134.5t-70.5 66.5t-108.5 20h-93v-543h-309zM444 1147v-379h123q116 0 182 53.5
t66 145.5q0 93 -60 141.5t-169 48.5q-104 0 -142 -10zM467 -492l-47 134q56 10 95.5 43t39.5 82q0 57 -59 120l215 37q34 -26 57 -68.5t23 -93.5q0 -121 -90.5 -185t-233.5 -69z" />
    <glyph glyph-name="rcommaaccent" unicode="&#x157;" horiz-adv-x="778" 
d="M125 0v672q0 214 -8 329h266l12 -184h8q36 103 112.5 156t158.5 53q30 0 65 -6v-293q-50 8 -84 8q-85 0 -141.5 -42t-71.5 -115q-6 -30 -6 -70v-508h-311zM135 -496l-47 134q56 10 95.5 42.5t39.5 81.5q0 58 -59 121l215 37q34 -26 57 -68.5t23 -93.5q0 -121 -90.5 -185
t-233.5 -69z" />
    <glyph glyph-name="Rcaron" unicode="&#x158;" horiz-adv-x="1214" 
d="M135 0v1362q181 29 416 29q309 0 446 -109q129 -101 129 -291q0 -122 -72 -212t-171 -126v-6q128 -52 184 -256q12 -43 39 -149.5t43.5 -162t28.5 -79.5h-320q-38 78 -94 322q-19 87 -48 134.5t-70.5 66.5t-108.5 20h-93v-543h-309zM444 1147v-379h123q116 0 182 53.5
t66 145.5q0 93 -60 141.5t-169 48.5q-104 0 -142 -10zM713 1456h-234l-207 252h220l102 -127h4l102 127h218z" />
    <glyph glyph-name="rcaron" unicode="&#x159;" horiz-adv-x="778" 
d="M125 0v672q0 214 -8 329h266l12 -184h8q36 103 112.5 156t158.5 53q30 0 65 -6v-293q-50 8 -84 8q-85 0 -141.5 -42t-71.5 -115q-6 -30 -6 -70v-508h-311zM514 1126h-211l-203 312h203l105 -178h4l102 178h205z" />
    <glyph glyph-name="Sacute" unicode="&#x15a;" horiz-adv-x="1105" 
d="M82 66l63 256q69 -36 161.5 -61t185.5 -25q105 0 162 40t57 109q0 64 -52.5 107t-179.5 86q-381 136 -381 409q0 181 142.5 297.5t380.5 116.5q205 0 352 -70l-70 -250q-130 66 -287 66q-96 0 -148 -38.5t-52 -94.5q0 -62 55 -101t201 -94q184 -68 270 -166.5t86 -244.5
q0 -88 -34 -164.5t-100.5 -136t-174.5 -93.5t-246 -34q-112 0 -219.5 25.5t-171.5 60.5zM598 1708h330l-250 -252h-250z" />
    <glyph glyph-name="sacute" unicode="&#x15b;" horiz-adv-x="888" 
d="M68 49l55 221q46 -28 124 -50.5t144 -22.5q133 0 133 82q0 40 -29.5 63.5t-115.5 52.5q-150 50 -219.5 128t-67.5 173q0 143 112.5 236.5t295.5 93.5q164 0 280 -59l-53 -215q-40 22 -99.5 39.5t-117.5 17.5q-56 0 -87.5 -21.5t-31.5 -58.5q0 -36 34 -60t128 -57
q140 -49 204 -124t66 -185q0 -146 -111.5 -236t-320.5 -90q-190 0 -323 72zM498 1438h286l-249 -312h-213z" />
    <glyph glyph-name="Scircumflex" unicode="&#x15c;" horiz-adv-x="1105" 
d="M82 66l63 256q69 -36 161.5 -61t185.5 -25q105 0 162 40t57 109q0 64 -52.5 107t-179.5 86q-381 136 -381 409q0 181 142.5 297.5t380.5 116.5q205 0 352 -70l-70 -250q-130 66 -287 66q-96 0 -148 -38.5t-52 -94.5q0 -62 55 -101t201 -94q184 -68 270 -166.5t86 -244.5
q0 -88 -34 -164.5t-100.5 -136t-174.5 -93.5t-246 -34q-112 0 -219.5 25.5t-171.5 60.5zM438 1708h236l207 -252h-219l-103 127h-4l-102 -127h-217z" />
    <glyph glyph-name="scircumflex" unicode="&#x15d;" horiz-adv-x="888" 
d="M68 49l55 221q46 -28 124 -50.5t144 -22.5q133 0 133 82q0 40 -29.5 63.5t-115.5 52.5q-150 50 -219.5 128t-67.5 173q0 143 112.5 236.5t295.5 93.5q164 0 280 -59l-53 -215q-40 22 -99.5 39.5t-117.5 17.5q-56 0 -87.5 -21.5t-31.5 -58.5q0 -36 34 -60t128 -57
q140 -49 204 -124t66 -185q0 -146 -111.5 -236t-320.5 -90q-190 0 -323 72zM346 1438h211l203 -312h-203l-104 179h-4l-103 -179h-203z" />
    <glyph glyph-name="Scedilla" unicode="&#x15e;" horiz-adv-x="1105" 
d="M82 66l63 256q69 -36 161.5 -61t185.5 -25q105 0 162 40t57 109q0 64 -52.5 107t-179.5 86q-381 136 -381 409q0 181 142.5 297.5t380.5 116.5q205 0 352 -70l-70 -250q-130 66 -287 66q-96 0 -148 -38.5t-52 -94.5q0 -62 55 -101t201 -94q184 -68 270 -166.5t86 -244.5
q0 -154 -100 -266.5t-293 -147.5l-45 -82q61 -8 104 -49t43 -99q0 -93 -71 -137.5t-177 -44.5q-101 0 -165 41l41 115q58 -33 112 -33q31 0 51.5 13t20.5 40q0 63 -160 74l74 148h-6q-90 0 -199 25t-176 61z" />
    <glyph glyph-name="scedilla" unicode="&#x15f;" horiz-adv-x="888" 
d="M66 49l57 221q46 -28 124 -50.5t144 -22.5q133 0 133 82q0 40 -29.5 63.5t-115.5 52.5q-149 50 -218 128t-69 173q2 144 113.5 237t294.5 93q164 0 280 -59l-53 -215q-40 22 -99.5 39.5t-117.5 17.5q-56 0 -87.5 -21.5t-31.5 -58.5q0 -36 34 -60t128 -57
q141 -49 205.5 -123.5t64.5 -185.5q0 -120 -77 -203t-224 -110l-45 -80q61 -8 104.5 -49t43.5 -101q0 -93 -70.5 -135.5t-179.5 -42.5q-97 0 -164 41l41 115q58 -33 113 -33q30 0 50.5 13t20.5 40q0 63 -160 74l76 148h-4q-54 0 -133.5 16.5t-148.5 52.5z" />
    <glyph glyph-name="Scaron" unicode="&#x160;" horiz-adv-x="1105" 
d="M82 66l63 256q69 -36 161.5 -61t185.5 -25q105 0 162 40t57 109q0 64 -52.5 107t-179.5 86q-381 136 -381 409q0 181 142.5 297.5t380.5 116.5q205 0 352 -70l-70 -250q-130 66 -287 66q-96 0 -148 -38.5t-52 -94.5q0 -62 55 -101t201 -94q184 -68 270 -166.5t86 -244.5
q0 -88 -34 -164.5t-100.5 -136t-174.5 -93.5t-246 -34q-112 0 -219.5 25.5t-171.5 60.5zM688 1456h-231l-207 252h219l102 -127h4l103 127h217z" />
    <glyph glyph-name="scaron" unicode="&#x161;" horiz-adv-x="888" 
d="M68 49l55 221q46 -28 124 -50.5t144 -22.5q133 0 133 82q0 40 -29.5 63.5t-115.5 52.5q-150 50 -219.5 128t-67.5 173q0 143 112.5 236.5t295.5 93.5q164 0 280 -59l-53 -215q-40 22 -99.5 39.5t-117.5 17.5q-56 0 -87.5 -21.5t-31.5 -58.5q0 -36 34 -60t128 -57
q140 -49 204 -124t66 -185q0 -146 -111.5 -236t-320.5 -90q-190 0 -323 72zM555 1126h-211l-203 312h203l105 -178h4l102 178h205z" />
    <glyph glyph-name="Tcommaaccent" unicode="&#x162;" horiz-adv-x="1122" 
d="M403 0v1118h-372v262h1061v-262h-377v-1118h-312zM393 -496l-47 134q56 10 95.5 42.5t39.5 81.5q0 58 -59 121l215 37q34 -26 57 -68.5t23 -93.5q0 -121 -90.5 -185t-233.5 -69z" />
    <glyph glyph-name="tcommaaccent" unicode="&#x163;" horiz-adv-x="751" 
d="M168 1188l305 84v-271h223v-229h-223v-362q0 -93 28 -135t95 -42q48 0 92 9l2 -236q-72 -26 -201 -26q-149 0 -235 86q-86 89 -86 296v410h-133v229h133v187zM258 -498l-47 133q56 10 95.5 43t39.5 82q0 58 -59 121l215 37q34 -26 57 -68.5t23 -93.5q0 -121 -90.5 -185
t-233.5 -69z" />
    <glyph glyph-name="Tcaron" unicode="&#x164;" horiz-adv-x="1122" 
d="M403 0v1118h-372v262h1061v-262h-377v-1118h-312zM678 1454h-234l-206 252h219l102 -127h4l103 127h217z" />
    <glyph glyph-name="tcaron" unicode="&#x165;" horiz-adv-x="759" 
d="M168 1190l305 84v-273h223v-229h-223v-362q0 -93 27 -135t94 -42q48 0 92 9l4 -236q-76 -26 -201 -26q-149 0 -235 86q-86 89 -86 296v410h-133v229h133v189zM672 1100l-76 112q30 20 49 60t19 82q0 56 -37 110l198 33q27 -20 46.5 -59.5t19.5 -81.5q0 -55 -22 -101.5
t-57 -77t-70.5 -50t-69.5 -27.5z" />
    <glyph glyph-name="Tbar" unicode="&#x166;" horiz-adv-x="1122" 
d="M1092 1118h-377v-340h235v-184h-235v-594h-312v594h-237v184h237v340h-372v262h1061v-262z" />
    <glyph glyph-name="tbar" unicode="&#x167;" horiz-adv-x="751" 
d="M696 772h-223v-143h170v-164h-170v-78q0 -81 29.5 -117.5t93.5 -36.5q48 0 92 9l2 -236q-72 -26 -201 -26q-149 0 -235 86q-86 89 -86 296v103h-127v164h127v143h-133v229h133v187l305 84v-271h223v-229z" />
    <glyph glyph-name="Utilde" unicode="&#x168;" horiz-adv-x="1396" 
d="M135 1380h311v-792q0 -178 65 -269.5t185 -91.5q254 0 254 361v792h312v-774q0 -314 -150 -471.5t-426 -157.5q-267 0 -409 155.5t-142 477.5v770zM555 1464h-143q-3 126 39.5 193t117.5 67q65 0 131 -41q66 -38 91 -38q26 0 37.5 18t17.5 70h139q3 -134 -37.5 -195
t-122.5 -61q-61 0 -133 39q-7 4 -20 11.5t-19 10.5t-15.5 7t-17.5 5.5t-16 1.5q-43 0 -49 -88z" />
    <glyph glyph-name="utilde" unicode="&#x169;" horiz-adv-x="1193" 
d="M1069 1001v-679q0 -154 8 -322h-270l-14 141h-7q-17 -27 -41 -52t-61.5 -52t-92 -43.5t-118.5 -16.5q-162 0 -257 107.5t-95 329.5v587h311v-538q0 -234 158 -234q59 0 99 33t56 76q13 29 13 68v595h311zM453 1141h-148q-4 128 42 199t126 71q53 0 133 -41
q9 -5 24.5 -13.5t24 -13t19.5 -8.5t20 -4q26 0 38 19t16 71h143q8 -262 -168 -262q-12 0 -23 1t-22.5 4t-19.5 5.5t-20.5 7.5t-18 7.5t-19.5 9t-18 8.5q-7 4 -23 13t-21.5 11.5t-15 5.5t-18.5 3q-45 0 -51 -94z" />
    <glyph glyph-name="Umacron" unicode="&#x16a;" horiz-adv-x="1396" 
d="M135 1380h311v-792q0 -178 65 -269.5t185 -91.5q254 0 254 361v792h312v-774q0 -314 -150 -471.5t-426 -157.5q-267 0 -409 155.5t-142 477.5v770zM434 1669h531v-166h-531v166z" />
    <glyph glyph-name="umacron" unicode="&#x16b;" horiz-adv-x="1193" 
d="M1069 1001v-679q0 -154 8 -322h-270l-14 141h-7q-17 -27 -41 -52t-61.5 -52t-92 -43.5t-118.5 -16.5q-162 0 -257 107.5t-95 329.5v587h311v-538q0 -234 158 -234q59 0 99 33t56 76q13 29 13 68v595h311zM342 1364h512v-172h-512v172z" />
    <glyph glyph-name="Ubreve" unicode="&#x16c;" horiz-adv-x="1396" 
d="M135 1380h311v-792q0 -178 65 -269.5t185 -91.5q254 0 254 361v792h312v-774q0 -314 -150 -471.5t-426 -157.5q-267 0 -409 155.5t-142 477.5v770zM410 1712h165q13 -94 121 -94q110 0 129 94h160q-3 -118 -75 -188t-214 -70q-144 0 -213.5 69.5t-72.5 188.5z" />
    <glyph glyph-name="ubreve" unicode="&#x16d;" horiz-adv-x="1193" 
d="M1069 1001v-679q0 -154 8 -322h-270l-14 141h-7q-17 -27 -41 -52t-61.5 -52t-92 -43.5t-118.5 -16.5q-162 0 -257 107.5t-95 329.5v587h311v-538q0 -234 158 -234q59 0 99 33t56 76q13 29 13 68v595h311zM313 1417h162q17 -125 121 -125q59 0 89.5 35.5t33.5 89.5h162
q-2 -132 -76 -211.5t-209 -79.5q-137 0 -209 81t-74 210z" />
    <glyph glyph-name="Uring" unicode="&#x16e;" horiz-adv-x="1396" 
d="M135 1380h311v-792q0 -178 65 -269.5t185 -91.5q254 0 254 361v792h312v-774q0 -314 -150 -471.5t-426 -157.5q-267 0 -409 155.5t-142 477.5v770zM702 1815q111 0 171.5 -57t60.5 -146q0 -85 -64 -142t-170 -57q-109 0 -173 56t-64 141q0 89 63 147t176 58zM694 1710
q-41 0 -64.5 -29.5t-23.5 -68.5t24.5 -66.5t65.5 -27.5q43 0 67.5 26.5t24.5 67.5q0 40 -25.5 69t-68.5 29z" />
    <glyph glyph-name="uring" unicode="&#x16f;" horiz-adv-x="1193" 
d="M1069 1001v-679q0 -154 8 -322h-270l-14 141h-7q-17 -27 -41 -52t-61.5 -52t-92 -43.5t-118.5 -16.5q-162 0 -257 107.5t-95 329.5v587h311v-538q0 -234 158 -234q59 0 99 33t56 76q13 29 13 68v595h311zM600 1104q-108 0 -173 56t-65 143q0 90 63.5 147t176.5 57
q107 0 168 -56.5t61 -145.5q0 -88 -63.5 -144.5t-167.5 -56.5zM598 1206q43 0 68.5 29t25.5 70t-25.5 70.5t-70.5 29.5q-42 0 -66 -30t-24 -72q0 -38 25.5 -67.5t66.5 -29.5z" />
    <glyph glyph-name="Uhungarumlaut" unicode="&#x170;" horiz-adv-x="1396" 
d="M135 1380h311v-792q0 -178 65 -269.5t185 -91.5q254 0 254 361v792h312v-774q0 -314 -150 -471.5t-426 -157.5q-267 0 -409 155.5t-142 477.5v770zM528 1708h289l-207 -238h-215zM901 1708h287l-207 -238h-215z" />
    <glyph glyph-name="uhungarumlaut" unicode="&#x171;" horiz-adv-x="1193" 
d="M1069 1001v-679q0 -154 8 -322h-270l-14 141h-7q-17 -27 -41 -52t-61.5 -52t-92 -43.5t-118.5 -16.5q-162 0 -257 107.5t-95 329.5v587h311v-538q0 -234 158 -234q59 0 99 33t56 76q13 29 13 68v595h311zM449 1436h245l-198 -306h-177zM805 1436h246l-201 -306h-176z" />
    <glyph glyph-name="Uogonek" unicode="&#x172;" horiz-adv-x="1396" 
d="M928 -236l43 -145q-94 -65 -223 -65q-101 0 -156 48.5t-55 131.5q0 118 118 246h-12q-244 9 -376 163t-132 465v772h311v-794q0 -178 64.5 -269.5t183.5 -91.5q256 0 256 361v794h312v-776q0 -257 -102.5 -408.5t-293.5 -195.5q-110 -101 -110 -178q0 -35 24.5 -55.5
t59.5 -20.5q44 0 88 18z" />
    <glyph glyph-name="uogonek" unicode="&#x173;" horiz-adv-x="1193" 
d="M1069 1001v-679q0 -158 8 -322l-98 2q-45 -79 -45 -141q0 -51 31 -83t79 -32q56 0 91 14l43 -143q-39 -32 -96.5 -49t-112.5 -17q-108 0 -169 56t-61 164q0 15 1.5 31t5 32t7 30t9 29.5t9.5 26.5t10.5 26t9.5 21.5l9 19.5t7 15l-14 139h-7q-17 -27 -41 -52t-61.5 -52
t-92 -43.5t-118.5 -16.5q-162 0 -257 107.5t-95 329.5v587h311v-538q0 -234 158 -234q59 0 99 33t56 76q13 29 13 68v595h311z" />
    <glyph glyph-name="Wcircumflex" unicode="&#x174;" horiz-adv-x="1818" 
d="M700 0h-342l-327 1380h334l104 -567q18 -98 82 -483h4q28 181 90 487l117 563h332l110 -581q43 -226 74 -463h4q12 90 80 481l113 563h317l-356 -1380h-338l-117 594q-48 246 -66 426h-4q-44 -274 -80 -426zM803 1706h233l207 -252h-219l-102 127h-4l-103 -127h-217z" />
    <glyph glyph-name="wcircumflex" unicode="&#x175;" horiz-adv-x="1554" 
d="M23 1001h317l82 -411q44 -251 55 -328h6q8 52 19 103.5t30.5 130t22.5 92.5l107 413h245l101 -399q52 -207 73 -340h4q19 153 60 342l84 397h305l-307 -1001h-291l-94 350q-38 136 -66 314h-4q-25 -171 -63 -312l-101 -352h-293zM674 1438h209l202 -312h-202l-103 179h-4
l-104 -179h-203z" />
    <glyph glyph-name="Ycircumflex" unicode="&#x176;" horiz-adv-x="1234" 
d="M766 0h-311v565l-437 815h359l139 -331q67 -155 107 -265h4q43 119 104 265l139 331h351l-455 -805v-575zM500 1706h233l207 -252h-219l-103 127h-4l-102 -127h-217z" />
    <glyph glyph-name="ycircumflex" unicode="&#x177;" horiz-adv-x="1071" 
d="M12 1001h346l150 -493q36 -127 49 -186h8q18 84 43 188l125 491h332l-234 -659q-103 -287 -183 -432.5t-169 -224.5q-137 -121 -299 -138l-67 263q66 14 135 53q35 19 71 53.5t58 71.5q16 26 16 45q0 21 -12 51zM444 1438h209l203 -312h-203l-102 179h-4l-105 -179h-202z
" />
    <glyph glyph-name="Ydieresis" unicode="&#x178;" horiz-adv-x="1234" 
d="M766 0h-311v565l-437 815h359l139 -331q67 -155 107 -265h4q43 119 104 265l139 331h351l-455 -805v-575zM422 1456q-58 0 -98.5 41t-40.5 98q0 60 40.5 101t100.5 41q57 0 96 -40.5t39 -101.5q0 -58 -39 -98.5t-98 -40.5zM846 1456q-59 0 -98 40.5t-39 98.5
q0 60 39.5 101t99.5 41q59 0 98 -40.5t39 -101.5q0 -58 -39.5 -98.5t-99.5 -40.5z" />
    <glyph glyph-name="Zacute" unicode="&#x179;" horiz-adv-x="1181" 
d="M49 0v168l658 946v8h-598v258h1001v-180l-643 -934v-8h653v-258h-1071zM610 1706h328l-250 -252h-250z" />
    <glyph glyph-name="zacute" unicode="&#x17a;" horiz-adv-x="960" 
d="M45 0v178l315 395q88 102 158 177v4h-438v247h819v-188l-301 -379q-13 -14 -40 -45.5t-42.5 -49.5t-38.5 -43t-43 -44v-4h481v-248h-870zM528 1438h289l-250 -312h-213z" />
    <glyph glyph-name="Zdotaccent" unicode="&#x17b;" horiz-adv-x="1181" 
d="M49 0v168l658 946v8h-598v258h1001v-180l-643 -934v-8h653v-258h-1071zM598 1460q-59 0 -100 41.5t-41 97.5q0 60 41.5 101t101.5 41q58 0 97.5 -41t39.5 -101q0 -57 -40 -98t-99 -41z" />
    <glyph glyph-name="zdotaccent" unicode="&#x17c;" horiz-adv-x="960" 
d="M45 0v178l315 395q88 102 158 177v4h-438v247h819v-188l-301 -379q-13 -14 -40 -45.5t-42.5 -49.5t-38.5 -43t-43 -44v-4h481v-248h-870zM485 1141q-61 0 -102 42t-41 101q0 63 41.5 104.5t103.5 41.5q60 0 100 -41.5t40 -104.5q0 -59 -40.5 -101t-101.5 -42z" />
    <glyph glyph-name="Zcaron" unicode="&#x17d;" horiz-adv-x="1181" 
d="M49 0v168l658 946v8h-598v258h1001v-180l-643 -934v-8h653v-258h-1071zM721 1454h-234l-206 252h219l102 -127h4l103 127h217z" />
    <glyph glyph-name="zcaron" unicode="&#x17e;" horiz-adv-x="960" 
d="M45 0v178l315 395q88 102 158 177v4h-438v247h819v-188l-301 -379q-13 -14 -40 -45.5t-42.5 -49.5t-38.5 -43t-43 -44v-4h481v-248h-870zM596 1126h-211l-203 312h203l104 -178h5l102 178h205z" />
    <glyph glyph-name="florin" unicode="&#x192;" horiz-adv-x="1136" 
d="M233 627v215h187l6 67q4 34 11 68t22.5 80t36.5 85t56 79.5t78 68.5t105 46t135 18q102 0 170 -33l-49 -221q-49 18 -98 18q-142 0 -162 -186l-12 -90h209v-215h-236l-45 -367q-10 -81 -26 -143t-46.5 -121t-73 -97.5t-108.5 -61.5t-151 -23q-127 3 -187 34l43 218
q40 -16 97 -19q53 1 82.5 26.5t48.5 86.5t34 180l33 287h-160z" />
    <glyph glyph-name="Ohorn" unicode="&#x1a0;" horiz-adv-x="1468" 
d="M737 225q103 0 179 61.5t114.5 167t38.5 240.5q0 127 -38 231t-114.5 168t-179.5 64q-104 0 -181.5 -64t-116 -168.5t-38.5 -234.5q0 -202 91 -333.5t245 -131.5zM1229 1524l223 39q49 -104 49 -209q0 -98 -55.5 -160.5t-161.5 -65.5q115 -176 115 -423q0 -338 -185 -533
t-493 -195q-199 0 -348 94.5t-225 253t-76 357.5q0 206 82 370t236 258.5t353 94.5q138 0 252 -43q23 -8 67.5 -28t78 -32t57.5 -12q76 0 76 84q0 73 -45 150z" />
    <glyph glyph-name="ohorn" unicode="&#x1a1;" horiz-adv-x="1204" 
d="M594 803q-70 0 -118 -46t-67.5 -111.5t-19.5 -143.5q0 -133 54 -217t151 -84q90 0 144.5 83t54.5 220q0 78 -19.5 143.5t-66 110.5t-113.5 45zM979 1159l219 37q45 -85 45 -192q0 -94 -52 -151.5t-147 -66.5q70 -120 70 -274q0 -133 -44.5 -237.5t-119.5 -168t-168 -96.5
t-196 -33q-226 0 -372 140t-146 377q0 244 146 388t388 144q95 0 184 -29q17 -5 51.5 -20t63.5 -25t51 -10q73 0 70 74q0 69 -43 143z" />
    <glyph glyph-name="Uhorn" unicode="&#x1af;" horiz-adv-x="1490" 
d="M1251 1597l219 35q46 -90 46 -192q0 -95 -55 -153t-165 -68l-34 -5v-608q0 -314 -150 -471.5t-426 -157.5q-267 0 -409 155.5t-142 477.5v770h311v-792q0 -178 65 -269.5t185 -91.5q254 0 254 361v792h238q60 0 83 19t23 61q0 62 -43 137z" />
    <glyph glyph-name="uhorn" unicode="&#x1b0;" horiz-adv-x="1193" 
d="M1010 1221l219 36q45 -88 45 -186q0 -90 -53 -145t-136 -66h-16v-538q0 -154 8 -322h-270l-14 141h-7q-17 -27 -41 -52t-61.5 -52t-92 -43.5t-118.5 -16.5q-162 0 -257 107t-95 328v589h311v-538q0 -234 158 -234q59 0 99 33t56 76q13 29 13 68v595h188q109 0 109 84
q0 61 -45 136z" />
    <glyph glyph-name="Aringacute" unicode="&#x1fa;" horiz-adv-x="1343" 
d="M674 1419q-100 0 -159.5 52.5t-59.5 130.5q0 77 58.5 129.5t162.5 52.5t160.5 -51.5t56.5 -130.5t-59 -131t-160 -52zM672 1524q42 0 66 22t24 58q0 34 -25 58t-67 24q-41 0 -62.5 -24t-21.5 -60q0 -32 23 -55t63 -23zM745 2009h340l-301 -188h-260zM854 354h-397
l-99 -354h-321l420 1380h409l430 -1380h-338zM502 588h305l-86 293q-26 84 -70 266h-4q-5 -19 -27.5 -119t-35.5 -147z" />
    <glyph glyph-name="aringacute" unicode="&#x1fb;" horiz-adv-x="1081" 
d="M641 1763h287l-301 -239h-215zM958 592v-348q0 -167 19 -244h-281l-18 100h-6q-101 -123 -289 -123q-146 0 -235 91t-89 217q0 190 157 286.5t431 96.5v12q0 53 -39.5 92t-142.5 39q-73 0 -148 -21.5t-129 -54.5l-57 201q162 90 389 90q121 0 208.5 -33.5t136.5 -95
t71 -136.5t22 -169zM657 365v108q-290 0 -290 -158q0 -58 34.5 -88t90.5 -30t100 32.5t59 81.5q6 24 6 54zM543 1075q-107 0 -171.5 56.5t-64.5 142.5q0 90 63 147.5t175 57.5q109 0 170 -57t61 -148q0 -86 -64 -142.5t-169 -56.5zM541 1178q44 0 70 28.5t26 69.5
t-25.5 70.5t-70.5 29.5q-42 0 -66 -30.5t-24 -71.5q0 -38 24.5 -67t65.5 -29z" />
    <glyph glyph-name="AEacute" unicode="&#x1fc;" horiz-adv-x="1777" 
d="M326 0h-320l588 1380h1051v-256h-568l37 -293h522v-253h-483l43 -322h524l-2 -256h-790l-49 377h-402zM569 627h275l-41 334q-14 109 -25 200h-6q-12 -36 -36.5 -105.5t-33.5 -97.5zM983 1706h328l-250 -252h-250z" />
    <glyph glyph-name="aeacute" unicode="&#x1fd;" horiz-adv-x="1644" 
d="M1575 416h-633q3 -95 77 -151t193 -56q156 0 281 53l43 -209q-148 -76 -369 -76q-126 0 -228.5 47t-154.5 132h-6q-132 -179 -372 -179q-159 0 -253 90.5t-94 223.5q0 180 159.5 275.5t432.5 95.5v26q0 14 -8 31.5t-27 39t-60 36t-97 14.5q-71 0 -142.5 -22.5
t-123.5 -53.5l-62 197q170 94 354 94q236 0 330 -162h6q124 162 342 162q107 0 190 -43t132 -115t73.5 -158t24.5 -180q0 -12 -8 -112zM659 365v104q-135 2 -214.5 -36t-79.5 -120q0 -56 36 -86t91 -30q56 0 97.5 29.5t61.5 74.5q8 24 8 64zM940 627h356q1 28 -6 58t-24 62
t-53.5 53t-86.5 21q-88 0 -136 -63.5t-50 -130.5zM846 1438h289l-250 -312h-213z" />
    <glyph glyph-name="Oslashacute" unicode="&#x1fe;" horiz-adv-x="1468" 
d="M315 -135l-168 131l115 176q-92 95 -141 229.5t-49 288.5q0 150 48.5 281.5t134 227.5t210.5 151t272 55q172 0 305 -74l113 166l178 -119l-114 -172q88 -95 134 -227t46 -279q0 -167 -50 -303.5t-138 -228t-209.5 -141.5t-264.5 -50q-160 0 -297 70zM440 438l459 672
q-70 51 -162 51q-163 0 -257.5 -130.5t-94.5 -338.5q0 -137 53 -254h2zM1036 930l-450 -660q58 -49 149 -49q161 0 255.5 130t94.5 343q0 127 -45 236h-4zM754 1716h327l-250 -252h-249z" />
    <glyph glyph-name="oslashacute" unicode="&#x1ff;" horiz-adv-x="1181" 
d="M592 1026q133 0 242 -53l96 139l108 -76l-94 -137q81 -68 124.5 -169t43.5 -224q0 -129 -44.5 -232.5t-118.5 -167t-165.5 -96.5t-191.5 -33q-136 0 -238 54l-100 -146l-102 82l90 133q-174 144 -174 400q0 236 145 381t379 145zM408 340l292 426q-46 37 -112 37
q-58 0 -102.5 -27t-69.5 -72t-37 -96t-12 -106q0 -99 34 -160zM776 653l-291 -415q40 -37 105 -37q103 0 163 81t60 216q0 90 -33 155h-4zM621 1438h286l-250 -312h-213z" />
    <glyph glyph-name="Scommaaccent" unicode="&#x218;" horiz-adv-x="1105" 
d="M82 66l63 256q69 -36 161.5 -61t185.5 -25q105 0 162 40t57 109q0 64 -52.5 107t-179.5 86q-381 136 -381 409q0 181 142.5 297.5t380.5 116.5q205 0 352 -70l-70 -250q-130 66 -287 66q-96 0 -148 -38.5t-52 -94.5q0 -62 55 -101t201 -94q184 -68 270 -166.5t86 -244.5
q0 -88 -34 -164.5t-100.5 -136t-174.5 -93.5t-246 -34q-112 0 -219.5 25.5t-171.5 60.5zM406 -496l-46 134q56 10 96 42.5t40 81.5q0 57 -60 121l215 37q34 -26 57 -68.5t23 -93.5q0 -121 -90.5 -185t-234.5 -69z" />
    <glyph glyph-name="scommaaccent" unicode="&#x219;" horiz-adv-x="888" 
d="M68 49l55 221q46 -28 124 -50.5t144 -22.5q133 0 133 82q0 40 -29.5 63.5t-115.5 52.5q-150 50 -219.5 128t-67.5 173q0 143 112.5 236.5t295.5 93.5q164 0 280 -59l-53 -215q-40 22 -99.5 39.5t-117.5 17.5q-56 0 -87.5 -21.5t-31.5 -58.5q0 -36 34 -60t128 -57
q140 -49 204 -124t66 -185q0 -146 -111.5 -236t-320.5 -90q-190 0 -323 72zM297 -496l-47 134q56 10 95.5 42.5t39.5 81.5q0 58 -59 121l215 37q34 -26 57 -68.5t23 -93.5q0 -121 -90.5 -185t-233.5 -69z" />
    <glyph glyph-name="uni021A" unicode="&#x21a;" horiz-adv-x="1122" 
d="M403 0v1118h-372v262h1061v-262h-377v-1118h-312zM393 -496l-47 134q56 10 95.5 42.5t39.5 81.5q0 58 -59 121l215 37q34 -26 57 -68.5t23 -93.5q0 -121 -90.5 -185t-233.5 -69z" />
    <glyph glyph-name="uni021B" unicode="&#x21b;" horiz-adv-x="751" 
d="M168 1188l305 84v-271h223v-229h-223v-362q0 -93 28 -135t95 -42q48 0 92 9l2 -236q-72 -26 -201 -26q-149 0 -235 86q-86 89 -86 296v410h-133v229h133v187zM258 -498l-47 133q56 10 95.5 43t39.5 82q0 58 -59 121l215 37q34 -26 57 -68.5t23 -93.5q0 -121 -90.5 -185
t-233.5 -69z" />
    <glyph glyph-name="uni021C" unicode="&#x21c;" horiz-adv-x="1099" 
d="M154 -256l-35 238q63 6 137 25t151.5 52.5t140 76.5t102 102t38.5 122q0 80 -61 138.5t-178 58.5q-37 0 -98.5 -9.5t-108.5 -25.5l-35 209q101 19 186 57.5t143 101t58 134.5q0 61 -51 100t-133 41q-131 0 -275 -71l-59 204q78 46 185 76.5t218 30.5q188 0 306.5 -87.5
t117.5 -234.5q0 -107 -66.5 -193.5t-177.5 -135.5v-4q158 -23 260 -120t101 -253q0 -128 -69 -243.5t-186 -198t-276 -133.5t-335 -58z" />
    <glyph glyph-name="uni021D" unicode="&#x21d;" horiz-adv-x="970" 
d="M104 -428l-34 238q29 0 65.5 3.5t88 12.5t100 23t97.5 37t85 52.5t59 72t23 93.5q0 66 -47 114t-158 48q-63 0 -176 -33l-41 211q348 73 348 222q0 58 -45 89t-127 31q-106 0 -246 -71l-57 203q69 47 173 76.5t212 29.5q181 0 286 -79t105 -216q0 -177 -213 -268v-4
q144 -22 226.5 -107t82.5 -215q0 -124 -67 -229.5t-179 -176.5t-257.5 -112t-303.5 -45z" />
    <glyph glyph-name="uni0232" unicode="&#x232;" horiz-adv-x="1234" 
d="M766 0h-311v565l-437 815h359l139 -331q67 -155 107 -265h4q43 119 104 265l139 331h351l-455 -805v-575zM352 1669h531v-166h-531v166z" />
    <glyph glyph-name="uni0233" unicode="&#x233;" horiz-adv-x="1071" 
d="M12 1001h346l150 -493q36 -127 49 -186h8q18 84 43 188l125 491h332l-234 -659q-103 -287 -183 -432.5t-169 -224.5q-137 -121 -299 -138l-67 263q66 14 135 53q35 19 71 53.5t58 71.5q16 26 16 45q0 21 -12 51zM281 1364h512v-172h-512v172z" />
    <glyph glyph-name="circumflex" unicode="&#x2c6;" 
d="M205 1438h209l202 -312h-202l-103 179h-4l-104 -179h-203z" />
    <glyph glyph-name="caron" unicode="&#x2c7;" 
d="M412 1126h-211l-203 312h203l104 -178h4l103 178h204z" />
    <glyph glyph-name="uni02C9" unicode="&#x2c9;" 
d="M53 1364h512v-172h-512v172z" />
    <glyph glyph-name="breve" unicode="&#x2d8;" 
d="M23 1417h161q17 -125 121 -125q59 0 90.5 35.5t34.5 89.5h162q-2 -133 -76.5 -212t-210.5 -79q-137 0 -208.5 80.5t-73.5 210.5z" />
    <glyph glyph-name="dotaccent" unicode="&#x2d9;" 
d="M248 1141q-61 0 -102.5 42t-41.5 101q0 63 42 104.5t104 41.5q60 0 99.5 -41.5t39.5 -104.5q0 -59 -40 -101t-101 -42z" />
    <glyph glyph-name="ring" unicode="&#x2da;" 
d="M291 1104q-108 0 -173 56t-65 143q0 90 63.5 147t176.5 57q107 0 168 -56.5t61 -145.5q0 -88 -63.5 -144.5t-167.5 -56.5zM289 1206q43 0 68.5 29t25.5 70t-25.5 70.5t-70.5 29.5q-42 0 -66 -30t-24 -72q0 -38 25.5 -67.5t66.5 -29.5z" />
    <glyph glyph-name="ogonek" unicode="&#x2db;" 
d="M168 2h166l-8 -16q-8 -15 -10 -19.5t-9 -19t-10 -23.5t-7 -22t-5.5 -25t-1.5 -24q0 -47 29 -78t79 -31q39 0 92 16l43 -145q-39 -31 -97 -47.5t-112 -16.5q-108 0 -168.5 55.5t-60.5 162.5q0 64 26.5 129.5t53.5 103.5z" />
    <glyph glyph-name="tilde" unicode="&#x2dc;" 
d="M164 1141h-148q-4 128 42 199t126 71q49 0 133 -41q8 -4 23.5 -13t23.5 -13.5t19 -8.5t20 -4q26 0 38 19t16 71h143q8 -262 -168 -262q-12 0 -23 1t-22.5 4t-19.5 5.5t-20.5 7.5t-18 7.5t-19.5 9t-18 8.5q-9 5 -23.5 13.5t-20 11t-15 5.5t-19.5 3q-43 0 -49 -94z" />
    <glyph glyph-name="hungarumlaut" unicode="&#x2dd;" 
d="M125 1436h246l-199 -306h-176zM481 1436h246l-201 -306h-176z" />
    <glyph glyph-name="uni037E" unicode="&#x37e;" horiz-adv-x="567" 
d="M254 -225l-205 -19q89 344 107 570l313 10q-83 -304 -215 -561zM299 584q-84 0 -137 55.5t-53 142.5t53 143t139 56t139.5 -55.5t53.5 -143.5q0 -87 -53.5 -142.5t-141.5 -55.5z" />
    <glyph glyph-name="tonos" unicode="&#x384;" horiz-adv-x="620" 
d="M266 1438h275l-166 -312h-203z" />
    <glyph glyph-name="dieresistonos" unicode="&#x385;" horiz-adv-x="890" 
d="M369 1493h229l-113 -358h-159zM141 1155q-54 0 -91.5 37t-37.5 90q0 55 37.5 92t93.5 37q52 0 87.5 -36.5t35.5 -92.5q0 -53 -36 -90t-89 -37zM743 1155q-53 0 -89 37t-36 90q0 55 36.5 92t90.5 37q55 0 91 -36.5t36 -92.5q0 -53 -36.5 -90t-92.5 -37z" />
    <glyph glyph-name="Alphatonos" unicode="&#x386;" horiz-adv-x="1359" 
d="M868 354h-397l-96 -354h-324l422 1380h408l430 -1380h-336zM516 588h305l-86 293q-16 58 -67 266h-6q-32 -148 -62 -266zM43 1380h250l-76 -356h-178z" />
    <glyph glyph-name="anoteleia" unicode="&#x387;" horiz-adv-x="567" 
d="M281 438q-86 0 -142.5 59t-56.5 148q0 90 57.5 148.5t145.5 58.5q89 0 143.5 -57t56.5 -150q0 -91 -56 -149t-148 -58z" />
    <glyph glyph-name="Epsilontonos" unicode="&#x388;" horiz-adv-x="1314" 
d="M1178 838v-254h-508v-328h567v-256h-879v1380h850v-256h-538v-286h508zM4 1380h250l-76 -356h-178z" />
    <glyph glyph-name="Etatonos" unicode="&#x389;" horiz-adv-x="1632" 
d="M356 1380h314v-530h514v530h311v-1380h-311v578h-514v-578h-314v1380zM4 1380h250l-76 -356h-178z" />
    <glyph glyph-name="Iotatonos" unicode="&#x38a;" horiz-adv-x="804" 
d="M358 1380h312v-1380h-312v1380zM4 1380h250l-76 -356h-178z" />
    <glyph glyph-name="Omicrontonos" unicode="&#x38c;" horiz-adv-x="1622" 
d="M872 -23q-199 0 -348 94.5t-225 253t-76 357.5q0 206 82.5 370t236.5 258.5t353 94.5q155 0 280.5 -55.5t206.5 -151t124.5 -222t43.5 -271.5q0 -338 -185 -533t-493 -195zM889 225q103 0 179 61.5t114.5 167t38.5 240.5q0 127 -37.5 231t-114 168t-180.5 64t-181.5 -64
t-116 -168.5t-38.5 -234.5q0 -202 91 -333.5t245 -131.5zM4 1380h250l-76 -356h-178z" />
    <glyph glyph-name="Upsilontonos" unicode="&#x38e;" horiz-adv-x="1595" 
d="M326 1135l49 258q98 -2 208.5 -48.5t192.5 -136.5q151 -164 178 -442h15q36 255 194 430q79 87 181.5 140.5t183.5 56.5l49 -265q-146 -40 -270.5 -192.5t-173.5 -353.5q-35 -143 -35 -283v-299h-312v301q0 141 -22 270q-27 150 -81.5 266t-146 196t-210.5 102zM4 1380
h250l-76 -356h-178z" />
    <glyph glyph-name="Omegatonos" unicode="&#x38f;" horiz-adv-x="1667" 
d="M1327 244v-8h275v-236h-609v182q262 197 262 535q0 118 -40.5 217t-120 161t-183.5 62q-156 0 -254 -127t-98 -313q0 -177 74.5 -321.5t187.5 -213.5v-182h-612v236h272v8q-102 80 -173.5 212t-71.5 300q0 134 50.5 253t139 206.5t216.5 138.5t276 51q154 0 281 -52.5
t208.5 -140.5t125.5 -200t44 -234q0 -95 -23 -182t-62 -153t-79 -113t-86 -86zM4 1380h250l-76 -356h-178z" />
    <glyph glyph-name="iotadieresistonos" unicode="&#x390;" horiz-adv-x="573" 
d="M436 1001v-688q0 -56 22 -78.5t72 -19.5l-16 -217q-47 -21 -131 -21q-63 0 -109 14.5t-80.5 49t-51.5 94.5t-17 148v718h311zM225 1470h228l-113 -354h-158zM-2 1133q-54 0 -90.5 37t-36.5 90q0 55 37 90.5t92 35.5q53 0 88 -35.5t35 -90.5q0 -53 -36 -90t-89 -37z
M598 1133q-53 0 -89 37t-36 90q0 55 36.5 90.5t90.5 35.5t89.5 -35.5t35.5 -90.5q0 -53 -36 -90t-91 -37z" />
    <glyph glyph-name="Alpha" unicode="&#x391;" horiz-adv-x="1343" 
d="M852 354h-395l-99 -354h-321l420 1380h409l430 -1380h-338zM502 588h305l-86 293q-26 84 -70 266h-4q-5 -19 -27.5 -119t-35.5 -147z" />
    <glyph glyph-name="Beta" unicode="&#x392;" horiz-adv-x="1236" 
d="M135 6v1356q170 29 404 29q146 0 240 -17.5t169 -60.5q75 -40 119.5 -110.5t44.5 -162.5q0 -95 -57 -172t-170 -120v-5q123 -32 198.5 -120.5t75.5 -216.5q0 -179 -143 -295q-156 -125 -543 -125q-198 0 -338 20zM444 1155v-321h103q122 0 187 46t65 124t-57.5 118.5
t-163.5 40.5q-84 0 -134 -8zM444 610v-389q31 -4 121 -4q116 0 191 49.5t75 151.5q0 66 -38.5 110t-99.5 63t-142 19h-107z" />
    <glyph glyph-name="Gamma" unicode="&#x393;" horiz-adv-x="987" 
d="M137 1380h836v-262h-524v-1118h-312v1380z" />
    <glyph glyph-name="uni0394" unicode="&#x394;" horiz-adv-x="1327" 
d="M33 0v156l442 1224h379l432 -1222v-158h-1253zM371 256h559l-195 578q-54 166 -84 294h-8q-34 -146 -76 -278z" />
    <glyph glyph-name="Epsilon" unicode="&#x395;" horiz-adv-x="1093" 
d="M956 838v-254h-507v-328h567v-256h-879v1380h850v-256h-538v-286h507z" />
    <glyph glyph-name="Zeta" unicode="&#x396;" horiz-adv-x="1181" 
d="M49 0v168l658 946v8h-598v258h1001v-180l-643 -934v-8h653v-258h-1071z" />
    <glyph glyph-name="Eta" unicode="&#x397;" horiz-adv-x="1411" 
d="M137 1380h312v-530h514v530h311v-1380h-311v578h-514v-578h-312v1380z" />
    <glyph glyph-name="Theta" unicode="&#x398;" horiz-adv-x="1472" 
d="M723 -23q-150 0 -274 54.5t-206 149.5t-126.5 223t-44.5 276q0 207 82.5 371.5t236.5 259t354 94.5q155 0 281 -55.5t207 -151t124.5 -222t43.5 -271.5q0 -336 -186 -532t-492 -196zM739 225q155 0 244.5 131t89.5 338q0 127 -38 231t-115.5 168t-182.5 64
q-156 0 -247 -134t-91 -335q0 -202 92 -332.5t248 -130.5zM520 829h430v-251h-430v251z" />
    <glyph glyph-name="Iota" unicode="&#x399;" horiz-adv-x="583" 
d="M137 1380h312v-1380h-312v1380z" />
    <glyph glyph-name="Kappa" unicode="&#x39a;" horiz-adv-x="1257" 
d="M135 0v1380h309v-610h5q42 72 96 152l311 458h385l-457 -587l480 -793h-363l-340 596l-117 -145v-451h-309z" />
    <glyph glyph-name="Lambda" unicode="&#x39b;" horiz-adv-x="1327" 
d="M1296 0h-340l-237 827q-11 43 -23.5 93.5t-26.5 110t-22 91.5h-4q-2 -9 -24.5 -124t-36.5 -171l-220 -827h-327l422 1380h403z" />
    <glyph glyph-name="Mu" unicode="&#x39c;" horiz-adv-x="1732" 
d="M1325 0l-22 528q-13 360 -13 568h-4q-68 -266 -156 -535l-167 -538h-244l-148 532q-68 248 -125 541h-4q-10 -323 -22 -572l-27 -524h-289l89 1380h415l135 -460q70 -250 117 -494h8q64 276 131 496l146 458h409l74 -1380h-303z" />
    <glyph glyph-name="Nu" unicode="&#x39d;" horiz-adv-x="1413" 
d="M422 0h-287v1380h365l286 -506q122 -216 226 -473h4q-25 253 -25 578v401h287v-1380h-328l-295 532q-149 267 -239 488h-8q14 -258 14 -604v-416z" />
    <glyph glyph-name="Xi" unicode="&#x39e;" horiz-adv-x="1175" 
d="M115 1380h956v-254h-956v254zM178 834h828v-252h-828v252zM86 256h1014v-256h-1014v256z" />
    <glyph glyph-name="Omicron" unicode="&#x39f;" horiz-adv-x="1468" 
d="M721 -23q-199 0 -348 94.5t-225 253t-76 357.5q0 206 82 370t236 258.5t353 94.5q155 0 281 -55.5t207 -151t124.5 -222t43.5 -271.5q0 -338 -185 -533t-493 -195zM737 225q103 0 179 61.5t114.5 167t38.5 240.5q0 127 -37.5 231t-114 168t-180.5 64t-181.5 -64
t-116 -168.5t-38.5 -234.5q0 -202 91 -333.5t245 -131.5z" />
    <glyph glyph-name="Pi" unicode="&#x3a0;" horiz-adv-x="1366" 
d="M1229 1380v-1380h-311v1118h-469v-1118h-312v1380h1092z" />
    <glyph glyph-name="Rho" unicode="&#x3a1;" horiz-adv-x="1189" 
d="M135 0v1362q174 29 422 29q284 0 422 -111q69 -54 108 -136.5t39 -182.5q0 -213 -127 -328q-158 -146 -448 -146q-63 0 -107 9v-496h-309zM444 1143v-408q36 -8 105 -8q125 0 196.5 59.5t71.5 163.5q0 96 -64 149.5t-182 53.5q-89 0 -127 -10z" />
    <glyph glyph-name="Sigma" unicode="&#x3a3;" horiz-adv-x="1183" 
d="M459 264v-8h657v-256h-1055v176l410 508l-387 494v202h981v-256h-584v-6l324 -422z" />
    <glyph glyph-name="Tau" unicode="&#x3a4;" horiz-adv-x="1122" 
d="M403 0v1118h-372v262h1061v-262h-377v-1118h-312z" />
    <glyph glyph-name="Upsilon" unicode="&#x3a5;" horiz-adv-x="1280" 
d="M18 1135l50 258q96 -2 206.5 -48.5t192.5 -136.5q151 -164 178 -442h14q36 254 195 430q79 87 181.5 140.5t183.5 56.5l49 -265q-146 -40 -271 -192.5t-174 -353.5q-35 -143 -35 -283v-299h-311v301q0 141 -22 270q-27 151 -81.5 266.5t-145.5 195.5t-210 102z" />
    <glyph glyph-name="Phi" unicode="&#x3a6;" horiz-adv-x="1607" 
d="M948 55v-112h-291v112q-116 14 -218.5 58.5t-186.5 119.5t-133 191.5t-49 259.5q0 119 36 221.5t95 174.5t137 126.5t159 84t165 40.5v107h290v-107q114 -14 217 -59.5t187 -121.5t134 -193.5t50 -260.5q0 -142 -49 -258.5t-132.5 -194t-188 -125t-222.5 -63.5zM659 274
v840q-50 -10 -97 -40.5t-88 -81t-66 -131t-25 -177.5q0 -170 84 -279.5t192 -130.5zM950 1114v-840q51 9 98 37t88.5 76t66 125.5t24.5 173.5q0 99 -24.5 179t-65.5 130.5t-88 80t-99 38.5z" />
    <glyph glyph-name="Chi" unicode="&#x3a7;" horiz-adv-x="1255" 
d="M1223 0h-361l-125 250q-25 48 -123 248h-4q-38 -106 -108 -248l-113 -250h-356l399 698l-385 682h359l120 -252q61 -125 105 -229h4q37 99 94 229l117 252h356l-389 -673z" />
    <glyph glyph-name="Psi" unicode="&#x3a8;" horiz-adv-x="1519" 
d="M1436 1380v-399q0 -151 -41.5 -266t-116 -185.5t-168 -108t-207.5 -44.5v-377h-285v377q-111 7 -203.5 40t-168 95t-118 164.5t-42.5 236.5v467h299v-419q0 -95 17 -162t50 -105.5t73 -57t93 -22.5v766h285v-768q51 4 90.5 25t73.5 66t52 126.5t18 196.5v354h299z" />
    <glyph glyph-name="uni03A9" unicode="&#x3a9;" horiz-adv-x="1523" 
d="M1182 244v-8h276v-236h-608v182q117 88 189 223.5t71 313.5q0 118 -40.5 216.5t-120 160t-183.5 61.5q-156 0 -254 -127t-98 -313q0 -165 76.5 -316.5t187.5 -218.5v-182h-610v236h270v8q-101 81 -174 213t-74 299q0 135 50.5 254t139 206.5t216.5 138t276 50.5
q154 0 281 -52t208.5 -140t126 -200t44.5 -235q0 -95 -23 -181t-62 -152t-79 -113.5t-86 -87.5z" />
    <glyph glyph-name="Iotadieresis" unicode="&#x3aa;" horiz-adv-x="583" 
d="M82 1462q-58 0 -98.5 41.5t-40.5 98.5q0 60 40.5 99.5t100.5 39.5q58 0 96.5 -39.5t38.5 -99.5q0 -58 -39 -99t-98 -41zM500 1462q-59 0 -98.5 41t-39.5 99q0 60 40 99.5t100 39.5t98.5 -39.5t38.5 -99.5q0 -58 -39.5 -99t-99.5 -41zM137 1380h312v-1380h-312v1380z" />
    <glyph glyph-name="Upsilondieresis" unicode="&#x3ab;" horiz-adv-x="1280" 
d="M438 1430q-58 0 -98.5 41t-40.5 98q0 60 40.5 99.5t100.5 39.5q58 0 96.5 -39.5t38.5 -99.5q0 -58 -39 -98.5t-98 -40.5zM856 1430q-59 0 -98 40.5t-39 98.5q0 60 39.5 99.5t99.5 39.5t98.5 -39.5t38.5 -99.5q0 -58 -39.5 -98.5t-99.5 -40.5zM18 1135l50 258
q96 -2 206.5 -48.5t192.5 -136.5q151 -164 178 -442h14q36 254 195 430q79 87 181.5 140.5t183.5 56.5l49 -265q-146 -40 -271 -192.5t-174 -353.5q-35 -143 -35 -283v-299h-311v301q0 141 -22 270q-42 230 -152 381t-285 183z" />
    <glyph glyph-name="alphatonos" unicode="&#x3ac;" horiz-adv-x="1193" 
d="M588 1432h274l-166 -312h-202zM829 1001h261q-27 -356 -27 -653q0 -79 24 -109.5t68 -27.5l-18 -217q-34 -17 -107 -17q-176 0 -217 183h-6q-52 -89 -136.5 -136t-187.5 -47q-176 0 -295.5 138.5t-119.5 363.5q0 122 39 227t103.5 173t145.5 106.5t166 38.5
q90 0 161.5 -39t113.5 -115h8q5 37 24 131zM383 494q0 -117 52.5 -194t135.5 -77q65 0 117 55.5t66 131.5q6 53 6 100q0 59 -4 84q-14 86 -62 139t-114 53q-89 0 -143 -84.5t-54 -207.5z" />
    <glyph glyph-name="epsilontonos" unicode="&#x3ad;" horiz-adv-x="958" 
d="M502 1432h274l-166 -312h-202zM287 528v9q-82 28 -127 81.5t-45 126.5q0 114 113 197.5t323 83.5q203 0 336 -76l-53 -196q-104 55 -236 55q-80 0 -125 -26t-45 -68q0 -87 229 -90h99v-203h-99q-58 -1 -101 -6t-79 -15.5t-55 -30.5t-19 -48q0 -55 58 -84t141 -29
q67 0 142 17.5t128 43.5l43 -200q-76 -48 -182.5 -70.5t-212.5 -22.5q-86 0 -163 17t-143.5 51.5t-106 97t-39.5 144.5q0 90 62.5 155t156.5 86z" />
    <glyph glyph-name="etatonos" unicode="&#x3ae;" horiz-adv-x="1200" 
d="M590 1432h274l-166 -312h-202zM401 862h7q39 63 117.5 112.5t191.5 49.5q161 0 259.5 -109.5t98.5 -322.5v-645q0 -271 21 -353h-295q-37 63 -37 355v606q0 217 -158 217q-59 0 -99.5 -34t-60.5 -83q-10 -25 -10 -77v-578h-311v682q0 224 -33 319h275q31 -60 34 -139z
" />
    <glyph glyph-name="iotatonos" unicode="&#x3af;" horiz-adv-x="573" 
d="M266 1434h279l-166 -312h-207zM436 1001v-688q0 -56 22 -78.5t70 -19.5l-14 -217q-47 -21 -131 -21q-63 0 -109 14.5t-80.5 49t-51.5 94.5t-17 148v718h311z" />
    <glyph glyph-name="upsilondieresistonos" unicode="&#x3b0;" horiz-adv-x="1142" 
d="M698 1001h291q31 -61 53.5 -163t22.5 -220q0 -98 -15.5 -186.5t-53.5 -173t-95 -146t-147 -98.5t-203 -37q-127 0 -225 46t-157.5 145.5t-59.5 241.5v258q0 248 -25 333h303q18 -20 25.5 -64t7.5 -130v-377q0 -96 45 -148.5t113 -52.5q64 0 106 52t59 132.5t17 186.5
q0 118 -20.5 233t-41.5 168zM489 1468h230l-115 -354h-158zM262 1133q-54 0 -90.5 37t-36.5 90q0 55 37 90.5t92 35.5q53 0 88 -35.5t35 -90.5q0 -53 -36 -90t-89 -37zM864 1133q-53 0 -89 37t-36 90q0 55 36.5 90.5t90.5 35.5t89.5 -35.5t35.5 -90.5q0 -53 -36 -90t-91 -37
z" />
    <glyph glyph-name="alpha" unicode="&#x3b1;" horiz-adv-x="1193" 
d="M829 1001h261q-27 -356 -27 -653q0 -79 24 -109.5t68 -27.5l-18 -217q-34 -17 -107 -17q-176 0 -217 183h-6q-52 -89 -136.5 -136t-187.5 -47q-176 0 -295.5 138.5t-119.5 363.5q0 122 39 227t103.5 173t145.5 106.5t166 38.5q90 0 161.5 -39t113.5 -115h8q5 37 24 131z
M383 494q0 -117 52.5 -194t135.5 -77q65 0 117 55.5t66 131.5q6 53 6 100q0 59 -4 84q-14 86 -62 139t-114 53q-89 0 -143 -84.5t-54 -207.5z" />
    <glyph glyph-name="beta" unicode="&#x3b2;" horiz-adv-x="1202" 
d="M426 70h-4v-119q0 -256 24 -357h-288q-39 79 -39 351v901q0 205 43 321t119 187q130 123 335 123q190 0 299 -107t109 -268q0 -91 -45 -179t-121 -128v-11q114 -28 195 -130t80 -244q0 -192 -124.5 -312.5t-310.5 -120.5q-171 0 -272 93zM420 901v-586q80 -104 198 -104
q96 0 148.5 61t52.5 150q0 101 -62.5 160t-158.5 67q-6 1 -14 1t-17 -0.5t-14 -0.5v191q13 0 33 4q73 13 115 70.5t42 136.5q0 82 -39.5 133t-105.5 51q-178 0 -178 -334z" />
    <glyph glyph-name="gamma" unicode="&#x3b3;" horiz-adv-x="1054" 
d="M655 -406h-303q11 355 -33 572q-47 225 -144 444t-202 391h346q60 -92 132 -289.5t108 -394.5h10q148 331 148 594q0 70 -2 90h297q4 -20 4 -77q0 -185 -95.5 -418t-258.5 -467q-13 -19 -13 -49q1 -25 6 -396z" />
    <glyph glyph-name="delta" unicode="&#x3b4;" horiz-adv-x="1179" 
d="M1026 1376l-80 -194q-34 25 -109 49t-147 24q-112 0 -112 -53q0 -22 25 -46.5t91 -74.5l168 -135q248 -198 248 -452q0 -116 -41 -213.5t-112 -163.5t-168 -103t-207 -37q-220 0 -367 137.5t-147 358.5q0 73 19.5 139t51.5 116.5t76.5 95t90 75t97.5 55.5v9l-38 34
q-111 105 -111 209q0 106 110.5 188.5t297.5 82.5q117 0 214.5 -30.5t149.5 -70.5zM668 731l-95 78q-84 -50 -135 -133t-51 -197q0 -116 61.5 -197t151.5 -81q86 0 142.5 74t56.5 192q0 72 -34 141t-97 123z" />
    <glyph glyph-name="epsilon" unicode="&#x3b5;" horiz-adv-x="958" 
d="M287 528v11q-82 26 -127 79.5t-45 126.5q0 114 113 197.5t323 83.5q208 0 336 -76l-53 -196q-104 55 -236 55q-80 0 -125 -26t-45 -68q0 -87 229 -90h99v-203h-99q-58 -1 -101 -6t-79 -15.5t-55 -30.5t-19 -48q0 -55 58 -84t141 -29q67 0 142 17.5t128 43.5l43 -200
q-76 -48 -182.5 -70.5t-212.5 -22.5q-86 0 -163 17t-143.5 51.5t-106 97t-39.5 144.5q0 90 62.5 155t156.5 86z" />
    <glyph glyph-name="zeta" unicode="&#x3b6;" horiz-adv-x="903" 
d="M739 -313l-192 61q17 33 34 99.5t19 103.5q-130 21 -227 59q-62 24 -113.5 59.5t-95 88t-68 130t-24.5 171.5q0 198 110 399.5t303 358.5v10h-96q-155 0 -229 28l30 197q63 -6 285 -6h381l43 -203q-100 -46 -192.5 -125.5t-162 -176t-111.5 -208.5t-42 -217
q0 -209 174 -289q41 -21 100.5 -37t92.5 -22t110 -18q8 -2 14.5 -9.5t6.5 -17.5q0 -103 -45 -232.5t-105 -203.5z" />
    <glyph glyph-name="eta" unicode="&#x3b7;" horiz-adv-x="1200" 
d="M401 862h7q39 63 117.5 112.5t191.5 49.5q161 0 259.5 -109.5t98.5 -322.5v-645q0 -271 21 -353h-295q-37 63 -37 355v606q0 217 -158 217q-59 0 -99.5 -34t-60.5 -83q-10 -25 -10 -77v-578h-311v682q0 224 -33 319h275q31 -60 34 -139z" />
    <glyph glyph-name="theta" unicode="&#x3b8;" horiz-adv-x="1167" 
d="M582 -23q-245 0 -379.5 195t-134.5 565q0 214 58 378.5t179.5 263t292.5 98.5q127 0 224 -54t157.5 -153t90.5 -233t30 -300q0 -232 -54.5 -399.5t-172.5 -264t-291 -96.5zM375 852h416q0 180 -53.5 294t-151.5 114q-99 0 -155 -115.5t-56 -292.5zM795 631h-418
q0 -203 55 -319.5t158 -116.5q102 0 153.5 117.5t51.5 318.5z" />
    <glyph glyph-name="iota" unicode="&#x3b9;" horiz-adv-x="573" 
d="M436 1001v-688q0 -56 22 -78.5t70 -19.5l-14 -217q-47 -21 -131 -21q-63 0 -109 14.5t-80.5 49t-51.5 94.5t-17 148v718h311z" />
    <glyph glyph-name="kappa" unicode="&#x3ba;" horiz-adv-x="1122" 
d="M705 547v-8q64 -18 119 -83t126 -182l160 -274h-358l-111 201q-62 107 -102.5 155.5t-87.5 51.5h-15v-408h-311v745q0 78 -8 154.5t-21 101.5h307q33 -37 33 -178v-239h6q27 33 56.5 72t51.5 69t54.5 76t47.5 67.5t49.5 71.5t41.5 61h355v-10q-19 -21 -165.5 -187.5
t-227.5 -256.5z" />
    <glyph glyph-name="lambda" unicode="&#x3bb;" horiz-adv-x="1060" 
d="M719 0l-137 453q-40 135 -58 213h-10q-12 -60 -49 -207l-133 -459h-324l350 920q11 28 11 51q0 16 -11 53q-34 89 -91 143t-120 54h-45l29 235q30 12 102 12q83 0 151 -33.5t120.5 -99.5t91.5 -141.5t78 -181.5l377 -1012h-332z" />
    <glyph glyph-name="uni03BC" unicode="&#x3bc;" horiz-adv-x="1198" 
d="M801 137h-6q-28 -61 -93 -106t-155 -45q-88 0 -141 59v-86q0 -258 22 -365h-274q-29 71 -29 363v1044h311v-559q0 -103 38.5 -159t113.5 -56q56 0 100.5 34t61.5 77q10 20 10 65v598h311v-675q0 -63 20 -88t64 -27l-16 -215q-40 -19 -113 -19q-177 0 -225 160z" />
    <glyph glyph-name="nu" unicode="&#x3bd;" horiz-adv-x="1044" 
d="M-2 1001h336l133 -464q14 -46 33.5 -129.5t29.5 -118.5h9q170 365 170 633q0 50 -2 79h292q7 -44 7 -77q0 -102 -28.5 -218t-82.5 -238.5t-112 -230.5t-136 -237h-301z" />
    <glyph glyph-name="xi" unicode="&#x3be;" horiz-adv-x="966" 
d="M811 891v-209h-57q-171 0 -263 -64t-92 -174q0 -89 64 -148t205 -95q106 -29 260 -51q24 -3 24 -27q0 -93 -45.5 -227t-103.5 -207l-195 61q17 33 32 98t17 103q-60 9 -108.5 19t-112.5 28.5t-112.5 41t-98.5 58t-83 78.5t-53.5 103t-20.5 131q0 144 86.5 252t224.5 147
v10q-103 39 -159 116.5t-54 176.5q0 152 125 258.5t348 106.5q164 0 283 -56l-50 -202q-84 38 -184 38t-154.5 -51t-54.5 -129q0 -84 69.5 -129.5t192.5 -54.5q23 -2 70 -2z" />
    <glyph glyph-name="omicron" unicode="&#x3bf;" horiz-adv-x="1181" 
d="M586 -23q-226 0 -372 140t-146 377q0 244 146 388t390 144q228 0 369 -143t141 -371q0 -133 -44.5 -237.5t-119.5 -168t-168 -96.5t-196 -33zM594 201q92 0 145.5 83t53.5 220q0 78 -19.5 143.5t-66 110.5t-113.5 45q-70 0 -118 -46t-67.5 -111.5t-19.5 -143.5
q0 -133 54 -217t151 -84z" />
    <glyph glyph-name="pi" unicode="&#x3c0;" horiz-adv-x="1228" 
d="M1165 766h-121v-453q0 -201 25 -313h-299q-35 52 -35 291v475h-217q-3 -192 -34.5 -424.5t-77.5 -341.5h-297q45 148 77.5 376.5t30.5 389.5q-119 0 -178 -14l-33 180q72 69 356 69h832z" />
    <glyph glyph-name="rho" unicode="&#x3c1;" horiz-adv-x="1210" 
d="M432 76h-4v-129q0 -275 14 -353h-301q-24 76 -24 355v454q0 105 15.5 189.5t44.5 143t59.5 97.5t70.5 74q143 119 340 119q224 0 360 -143t136 -377q0 -127 -40.5 -230.5t-107.5 -167t-148.5 -97.5t-168.5 -34q-81 0 -145.5 26.5t-100.5 72.5zM428 477v-76q0 -32 6 -59
q16 -49 67 -87t115 -38q99 0 155 79.5t56 205.5q0 120 -52.5 194t-143.5 74q-89 0 -146 -77.5t-57 -215.5z" />
    <glyph glyph-name="uni03C2" unicode="&#x3c2;" horiz-adv-x="937" 
d="M907 975l-59 -219q-95 35 -178 35q-123 0 -202 -85t-79 -217q0 -203 211 -270q91 -30 285 -65q18 -3 18 -29q0 -106 -44.5 -241.5t-100.5 -198.5l-195 63q16 31 32 95t21 106q-118 26 -155 37q-83 23 -151 61t-124 95t-87 140.5t-31 186.5q0 107 39 205.5t111 177
t185.5 125.5t251.5 47q156 0 252 -49z" />
    <glyph glyph-name="sigma" unicode="&#x3c3;" horiz-adv-x="1216" 
d="M967 813l-2 -10q63 -56 97 -140.5t34 -164.5q0 -105 -28 -192t-75.5 -147t-113 -101.5t-139 -61t-154.5 -19.5q-226 0 -372 137.5t-146 374.5q0 245 149.5 391t405.5 146h192h154h229l-12 -225q-69 0 -219 12zM594 201q89 0 141.5 83.5t52.5 219.5q0 78 -18 143
t-63 110.5t-111 45.5q-71 0 -119.5 -45t-68 -110.5t-19.5 -145.5q0 -133 54 -217t151 -84z" />
    <glyph glyph-name="tau" unicode="&#x3c4;" horiz-adv-x="925" 
d="M745 217l-12 -217q-52 -23 -143 -23q-162 0 -229.5 86.5t-67.5 266.5v436h-84q-114 0 -189 -14l-38 182q87 67 352 67h571l-28 -235h-273v-414q0 -135 103 -135h38z" />
    <glyph glyph-name="upsilon" unicode="&#x3c5;" horiz-adv-x="1142" 
d="M698 1001h291q31 -61 53.5 -163t22.5 -220q0 -98 -15.5 -186.5t-53.5 -173t-95 -146t-147 -98.5t-203 -37q-127 0 -225 46t-157.5 145.5t-59.5 241.5v258q0 248 -25 333h303q18 -20 25.5 -64t7.5 -130v-377q0 -96 45 -148.5t113 -52.5q64 0 106 52t59 132.5t17 186.5
q0 118 -20.5 233t-41.5 168z" />
    <glyph glyph-name="phi" unicode="&#x3c6;" horiz-adv-x="1456" 
d="M434 1028l117 -166q-73 -51 -123.5 -140t-50.5 -208q0 -126 59 -213.5t160 -110.5v478q0 94 28.5 165.5t77 112t107 60.5t123.5 18q88 -2 169.5 -39t145 -100t101.5 -158t38 -205q0 -122 -45 -224t-119.5 -167.5t-164 -104.5t-185.5 -49v-383h-276v383q-82 7 -156.5 30
t-143 66.5t-119 103t-80 144.5t-29.5 187t36 194.5t92.5 156t117.5 106.5t120 63zM870 729v-543q99 21 160.5 107.5t61.5 222.5q0 124 -51.5 209.5t-114.5 85.5q-25 0 -40.5 -21.5t-15.5 -60.5z" />
    <glyph glyph-name="chi" unicode="&#x3c7;" horiz-adv-x="1032" 
d="M10 1001h334l195 -452h8q47 123 69 176l115 276h297l-346 -679l348 -717l-295 -68l-235 522h-11q-5 -12 -30 -77t-47 -113l-148 -332l-264 70l354 712z" />
    <glyph glyph-name="psi" unicode="&#x3c8;" horiz-adv-x="1486" 
d="M618 -406v383q-503 34 -503 547v221q0 173 -15 256h283q29 -39 29 -194v-258q0 -336 206 -354v1069h277v-1069q71 2 121.5 58.5t74 143.5t23.5 193q0 136 -21 249t-42 162h276q82 -156 82 -393q0 -94 -16.5 -179t-55 -165.5t-96.5 -140.5t-146.5 -99.5t-199.5 -46.5v-383
h-277z" />
    <glyph glyph-name="omega" unicode="&#x3c9;" horiz-adv-x="1501" 
d="M895 766l-6 -367q0 -71 26 -116t74 -45q62 0 101.5 81t39.5 230q0 129 -37 251.5t-104 198.5v7h283q64 -61 113 -189t49 -282q0 -259 -119.5 -408.5t-298.5 -149.5q-88 0 -160 42.5t-106 115.5h-9q-42 -71 -112 -114.5t-160 -43.5q-78 0 -149 34t-128 98.5t-90.5 168
t-33.5 232.5q0 160 48 288.5t117 207.5h281v-7q-66 -85 -105.5 -209.5t-39.5 -259.5q0 -143 41.5 -217.5t99.5 -74.5q45 0 71.5 45.5t24.5 115.5l-4 367h293z" />
    <glyph glyph-name="iotadieresis" unicode="&#x3ca;" horiz-adv-x="573" 
d="M80 1120q-60 0 -100.5 41.5t-40.5 100.5q0 61 40.5 101t102.5 40q57 0 96 -40t39 -101q0 -59 -39 -100.5t-98 -41.5zM500 1120q-61 0 -100.5 41.5t-39.5 100.5q0 61 40 101t102 40q59 0 98 -40t39 -101q0 -60 -39 -101t-100 -41zM436 1001v-688q0 -56 22 -78.5t70 -19.5
l-14 -217q-47 -21 -131 -21q-63 0 -109 14.5t-80.5 49t-51.5 94.5t-17 148v718h311z" />
    <glyph glyph-name="upsilondieresis" unicode="&#x3cb;" horiz-adv-x="1142" 
d="M346 1120q-60 0 -100.5 41.5t-40.5 100.5q0 61 40.5 101t102.5 40q57 0 96 -40t39 -101q0 -59 -39 -100.5t-98 -41.5zM766 1120q-61 0 -100 41t-39 101q0 62 39.5 101.5t101.5 39.5q59 0 98 -40t39 -101q0 -60 -39 -101t-100 -41zM698 1001h291q31 -61 53.5 -163
t22.5 -220q0 -98 -15.5 -186.5t-53.5 -173t-95 -146t-147 -98.5t-203 -37q-127 0 -225 46t-157.5 145.5t-59.5 241.5v258q0 248 -25 333h303q18 -20 25.5 -64t7.5 -130v-377q0 -96 45 -148.5t113 -52.5q64 0 106 52t59 132.5t17 186.5q0 118 -20.5 233t-41.5 168z" />
    <glyph glyph-name="omicrontonos" unicode="&#x3cc;" horiz-adv-x="1181" 
d="M580 1432h274l-166 -312h-203zM586 -23q-226 0 -372 140t-146 377q0 244 146 388t390 144q228 0 369 -143t141 -371q0 -133 -44.5 -237.5t-119.5 -168t-168 -96.5t-196 -33zM594 201q92 0 145.5 83t53.5 220q0 78 -19.5 143.5t-66 110.5t-113.5 45q-70 0 -118 -46
t-67.5 -111.5t-19.5 -143.5q0 -133 54 -217t151 -84z" />
    <glyph glyph-name="upsilontonos" unicode="&#x3cd;" horiz-adv-x="1142" 
d="M545 1434h280l-168 -312h-206zM698 1001h291q31 -61 53.5 -163t22.5 -220q0 -98 -15.5 -186.5t-53.5 -173t-95 -146t-147 -98.5t-203 -37q-127 0 -225 46t-157.5 145.5t-59.5 241.5v258q0 248 -25 333h303q18 -20 25.5 -64t7.5 -130v-377q0 -96 45 -148.5t113 -52.5
q64 0 106 52t59 132.5t17 186.5q0 118 -20.5 233t-41.5 168z" />
    <glyph glyph-name="omegatonos" unicode="&#x3ce;" horiz-adv-x="1501" 
d="M737 1432h275l-166 -312h-203zM895 766l-6 -367q0 -71 26 -116t74 -45q62 0 101.5 81t39.5 230q0 129 -37 251.5t-104 198.5v7h283q64 -61 113 -189t49 -282q0 -259 -119.5 -408.5t-298.5 -149.5q-88 0 -160 42.5t-106 115.5h-9q-42 -71 -112 -114.5t-160 -43.5
q-78 0 -149 34t-128 98.5t-90.5 168t-33.5 232.5q0 160 48 288.5t117 207.5h281v-7q-66 -85 -105.5 -209.5t-39.5 -259.5q0 -143 41.5 -217.5t99.5 -74.5q45 0 71.5 45.5t24.5 115.5l-4 367h293z" />
    <glyph glyph-name="uni0401" unicode="&#x401;" horiz-adv-x="1093" 
d="M956 838v-254h-507v-328h567v-256h-879v1380h850v-256h-538v-286h507zM342 1460q-58 0 -98.5 41t-40.5 98q0 60 40.5 101t100.5 41q57 0 96 -40.5t39 -101.5q0 -58 -39 -98.5t-98 -40.5zM768 1460q-59 0 -98 40.5t-39 98.5q0 60 39.5 101t99.5 41q59 0 98 -40.5
t39 -101.5q0 -58 -39.5 -98.5t-99.5 -40.5z" />
    <glyph glyph-name="uni0402" unicode="&#x402;" horiz-adv-x="1478" 
d="M29 1380h1151v-256h-482v-260h9q106 60 241 60q208 0 338 -164q121 -151 121 -408q0 -192 -76 -338t-217 -219q-114 -88 -254 -106l-47 256q119 30 182 98q84 95 84 289q0 176 -61 256q-63 84 -168 84q-86 0 -152 -47v-625h-311v1124h-358v256z" />
    <glyph glyph-name="uni0403" unicode="&#x403;" horiz-adv-x="1001" 
d="M137 1380h834v-256h-522v-1124h-312v1380zM561 1706h328l-250 -252h-250z" />
    <glyph glyph-name="uni0404" unicode="&#x404;" horiz-adv-x="1218" 
d="M1161 1333l-63 -237q-116 55 -273 55q-178 0 -285 -93t-132 -239h626v-244h-624q15 -154 131 -248t301 -94q144 0 260 48l47 -236q-53 -27 -147.5 -47.5t-206.5 -20.5q-338 0 -530.5 191t-192.5 518q0 112 28.5 216t89 195.5t146.5 159.5t208 107t267 39q212 0 350 -70z
" />
    <glyph glyph-name="uni0405" unicode="&#x405;" horiz-adv-x="1105" 
d="M82 66l63 256q69 -36 161.5 -61t185.5 -25q105 0 162 40t57 109q0 64 -52.5 107t-179.5 86q-381 136 -381 409q0 181 142.5 297.5t380.5 116.5q205 0 352 -70l-70 -250q-130 66 -287 66q-96 0 -148 -38.5t-52 -94.5q0 -62 55 -101t201 -94q184 -68 270 -166.5t86 -244.5
q0 -88 -34 -164.5t-100.5 -136t-174.5 -93.5t-246 -34q-112 0 -219.5 25.5t-171.5 60.5z" />
    <glyph glyph-name="uni0406" unicode="&#x406;" horiz-adv-x="583" 
d="M137 1380h312v-1380h-312v1380z" />
    <glyph glyph-name="uni0407" unicode="&#x407;" horiz-adv-x="583" 
d="M137 1380h312v-1380h-312v1380zM80 1460q-58 0 -98.5 41t-40.5 98q0 60 40.5 101t100.5 41q57 0 96 -40.5t39 -101.5q0 -58 -39 -98.5t-98 -40.5zM504 1460q-59 0 -98 40.5t-39 98.5q0 60 39.5 101t99.5 41q59 0 98 -40.5t39 -101.5q0 -58 -39.5 -98.5t-99.5 -40.5z" />
    <glyph glyph-name="uni0408" unicode="&#x408;" horiz-adv-x="841" 
d="M406 510v870h311v-872q0 -283 -126 -407t-364 -124q-128 0 -229 33l35 252q74 -24 160 -24q106 0 159.5 60.5t53.5 211.5z" />
    <glyph glyph-name="uni0409" unicode="&#x409;" horiz-adv-x="1935" 
d="M254 1380h905v-491q75 10 164 10q108 0 203.5 -27t172 -80t121 -139.5t44.5 -197.5q0 -194 -133 -314q-174 -155 -549 -155q-192 0 -332 20v1118h-293v-327q0 -144 -10.5 -252.5t-37 -209t-77.5 -173t-127 -117.5q-122 -68 -272 -68l-41 250q98 14 158 78
q59 62 81.5 179.5t22.5 291.5v604zM1159 659v-434q37 -6 107 -6q115 0 194.5 61.5t79.5 170.5t-76 163t-194 54q-32 0 -111 -9z" />
    <glyph glyph-name="uni040A" unicode="&#x40a;" horiz-adv-x="1953" 
d="M137 1380h312v-514h419v514h310v-495q78 10 170 10q111 0 206 -26.5t169 -78.5t116.5 -137t42.5 -194q0 -198 -133 -318q-174 -155 -547 -155q-194 0 -334 20v598h-419v-604h-312v1380zM1178 653v-426q49 -8 110 -8q116 0 193.5 60.5t77.5 169.5t-74.5 162t-192.5 53
q-50 0 -114 -11z" />
    <glyph glyph-name="uni040B" unicode="&#x40b;" horiz-adv-x="1495" 
d="M31 1380h1128v-256h-461v-278h7q57 35 135 58.5t157 23.5q175 0 271 -107q102 -111 102 -327v-494h-311v453q0 120 -49 172q-45 51 -129 51q-104 0 -183 -62v-614h-311v1124h-356v256z" />
    <glyph glyph-name="uni040C" unicode="&#x40c;" horiz-adv-x="1239" 
d="M137 1380h307v-575h29l379 575h379l-481 -614q125 -30 196.5 -112.5t118.5 -219.5q7 -21 28 -85t31.5 -94.5t28.5 -81.5t35.5 -92.5t36.5 -80.5h-336q-16 33 -32 74.5t-26 72t-25.5 81.5t-23.5 75q-20 65 -40.5 110t-52.5 85t-78 60t-107 20h-60v-578h-307v1380z
M637 1696h328l-250 -252h-250z" />
    <glyph glyph-name="uni040E" unicode="&#x40e;" horiz-adv-x="1204" 
d="M6 1382h352l201 -497q21 -52 52.5 -140t45.5 -124h7q5 18 17.5 65t26.5 99.5t29 105.5l150 491h330l-261 -682q-53 -135 -86.5 -214.5t-85 -177t-100.5 -156.5q-146 -183 -367 -183q-86 0 -153 23l22 250q49 -11 103 -11q67 0 116 37.5t72 89.5q11 27 -6 66zM301 1700
h211q3 -63 24 -94t68 -31q85 0 94 125h211q-9 -127 -90 -189.5t-221 -62.5q-274 0 -297 252z" />
    <glyph glyph-name="uni040F" unicode="&#x40f;" horiz-adv-x="1380" 
d="M137 1380h312v-1124h485v1124h311v-1380h-409l-17 -377h-256l-16 377h-410v1380z" />
    <glyph glyph-name="uni0410" unicode="&#x410;" horiz-adv-x="1343" 
d="M852 354h-395l-99 -354h-321l420 1380h409l430 -1380h-338zM502 588h305l-86 293q-26 84 -70 266h-4q-5 -19 -27.5 -119t-35.5 -147z" />
    <glyph glyph-name="uni0411" unicode="&#x411;" horiz-adv-x="1234" 
d="M137 1380h916v-254h-607v-237q78 10 168 10q109 0 212 -28.5t178 -84.5q159 -116 159 -331q0 -191 -131 -312q-178 -157 -561 -157q-194 0 -334 20v1374zM446 659v-432q47 -8 119 -8q124 0 203 70q68 65 68 162t-74 155q-79 62 -207 62q-26 0 -109 -9z" />
    <glyph glyph-name="uni0412" unicode="&#x412;" horiz-adv-x="1236" 
d="M135 6v1356q170 29 404 29q146 0 240 -17.5t169 -60.5q75 -40 119.5 -110.5t44.5 -162.5q0 -95 -57 -172t-170 -120v-5q123 -32 198.5 -120.5t75.5 -216.5q0 -179 -143 -295q-156 -125 -543 -125q-198 0 -338 20zM444 1155v-321h103q122 0 187 46t65 124t-57.5 118.5
t-163.5 40.5q-84 0 -134 -8zM444 610v-389q31 -4 121 -4q116 0 191 49.5t75 151.5q0 66 -38.5 110t-99.5 63t-142 19h-107z" />
    <glyph glyph-name="uni0413" unicode="&#x413;" horiz-adv-x="1001" 
d="M137 1380h834v-256h-522v-1124h-312v1380z" />
    <glyph glyph-name="uni0414" unicode="&#x414;" horiz-adv-x="1409" 
d="M328 1380h903v-1134l137 -8l-14 -586h-236l-16 348h-809l-17 -348h-237l-12 586l116 8q87 151 131 307q54 203 54 459v368zM616 1126v-184q0 -248 -61 -455q-38 -127 -94 -233h459v872h-304z" />
    <glyph glyph-name="uni0415" unicode="&#x415;" horiz-adv-x="1093" 
d="M956 838v-254h-507v-328h567v-256h-879v1380h850v-256h-538v-286h507z" />
    <glyph glyph-name="uni0416" unicode="&#x416;" horiz-adv-x="1792" 
d="M12 1380h363l344 -573h26v573h302v-573h26l344 573h363l-471 -616q68 -7 123 -35t94.5 -74.5t67.5 -101t51 -125.5q8 -24 57.5 -186t85.5 -242h-315q-15 32 -31 76t-24 71t-25 85.5t-21 72.5q-18 61 -38.5 105.5t-52.5 85t-79 61.5t-108 21h-47v-578h-302v578h-49
q-61 0 -107.5 -21t-78.5 -61.5t-52.5 -84.5t-39.5 -106q-7 -22 -21.5 -74t-23.5 -83t-24 -73.5t-30 -74.5h-313q26 61 50 129.5t53 161t41 129.5q48 146 124.5 232.5t206.5 111.5z" />
    <glyph glyph-name="uni0417" unicode="&#x417;" horiz-adv-x="1114" 
d="M158 1071l-72 223q190 111 430 111q221 0 350 -99t129 -255q0 -126 -75.5 -211t-200.5 -115v-4q136 -20 228.5 -108t92.5 -220q0 -111 -51.5 -194.5t-136.5 -130t-180.5 -69t-198.5 -22.5q-245 0 -414 97l66 241q56 -30 151 -57t183 -27q119 0 186.5 48.5t67.5 134.5
q0 54 -26 92t-71.5 56.5t-92 26t-101.5 7.5h-131v231h131q109 0 178.5 46.5t69.5 127.5q0 69 -55.5 110.5t-153.5 41.5q-139 0 -303 -82z" />
    <glyph glyph-name="uni0418" unicode="&#x418;" horiz-adv-x="1413" 
d="M135 1380h287v-409q0 -331 -16 -625h6q124 272 247 492l297 542h320v-1380h-287v408q0 351 23 581h-6q-88 -230 -236 -491l-281 -498h-354v1380z" />
    <glyph glyph-name="uni0419" unicode="&#x419;" horiz-adv-x="1413" 
d="M135 1380h287v-409q0 -331 -16 -625h6q124 272 247 492l297 542h320v-1380h-287v408q0 351 23 581h-6q-88 -230 -236 -491l-281 -498h-354v1380zM401 1696h211q3 -63 24 -94t69 -31q85 0 94 125h211q-9 -127 -90 -189.5t-222 -62.5q-274 0 -297 252z" />
    <glyph glyph-name="uni041A" unicode="&#x41a;" horiz-adv-x="1239" 
d="M137 1380h307v-575h29l379 575h379l-481 -614q125 -30 196.5 -112.5t118.5 -219.5q7 -21 28 -85t31.5 -94.5t28.5 -81.5t35.5 -92.5t36.5 -80.5h-336q-16 33 -32 74.5t-26 72t-25.5 81.5t-23.5 75q-20 65 -40.5 110t-52.5 85t-78 60t-107 20h-60v-578h-307v1380z" />
    <glyph glyph-name="uni041B" unicode="&#x41b;" horiz-adv-x="1320" 
d="M254 1380h930v-1380h-312v1124h-313v-327q0 -143 -10.5 -251.5t-37.5 -209t-78.5 -173.5t-127.5 -118q-122 -68 -274 -68l-39 252q99 12 158 74q59 60 81.5 179t22.5 294v604z" />
    <glyph glyph-name="uni041C" unicode="&#x41c;" horiz-adv-x="1732" 
d="M1325 0l-22 528q-13 360 -13 568h-4q-68 -266 -156 -535l-167 -538h-244l-148 532q-68 248 -125 541h-4q-10 -323 -22 -572l-27 -524h-289l89 1380h415l135 -460q70 -250 117 -494h8q64 276 131 496l146 458h409l74 -1380h-303z" />
    <glyph glyph-name="uni041D" unicode="&#x41d;" horiz-adv-x="1411" 
d="M137 1380h312v-530h514v530h311v-1380h-311v578h-514v-578h-312v1380z" />
    <glyph glyph-name="uni041E" unicode="&#x41e;" horiz-adv-x="1468" 
d="M743 1405q155 0 281 -55.5t207 -151t124.5 -222t43.5 -271.5q0 -338 -185 -533t-493 -195q-199 0 -348 94.5t-225 253t-76 357.5q0 206 82 370t236 258.5t353 94.5zM737 1157q-156 0 -246 -131.5t-90 -337.5q0 -207 90.5 -335t245.5 -128q103 0 179 61.5t114.5 167
t38.5 240.5q0 127 -37.5 231t-114 168t-180.5 64z" />
    <glyph glyph-name="uni041F" unicode="&#x41f;" horiz-adv-x="1386" 
d="M137 1380h1114v-1380h-311v1124h-491v-1124h-312v1380z" />
    <glyph glyph-name="uni0420" unicode="&#x420;" horiz-adv-x="1189" 
d="M135 0v1362q174 29 422 29q284 0 422 -111q69 -54 108 -136.5t39 -182.5q0 -213 -127 -328q-158 -146 -448 -146q-63 0 -107 9v-496h-309zM444 1143v-408q36 -8 105 -8q125 0 196.5 59.5t71.5 163.5q0 96 -64 149.5t-182 53.5q-89 0 -127 -10z" />
    <glyph glyph-name="uni0421" unicode="&#x421;" horiz-adv-x="1218" 
d="M1102 283l45 -246q-48 -23 -143 -41.5t-209 -18.5q-175 0 -313.5 53t-227.5 146.5t-135.5 219t-46.5 274.5q0 138 38 256.5t106.5 205t162.5 147.5t207 91.5t239 30.5q114 0 204 -18t136 -44l-65 -245q-115 51 -262 51q-194 0 -316.5 -118t-122.5 -339q0 -208 117.5 -329
t323.5 -121q157 0 262 45z" />
    <glyph glyph-name="uni0422" unicode="&#x422;" horiz-adv-x="1122" 
d="M403 0v1118h-372v262h1061v-262h-377v-1118h-312z" />
    <glyph glyph-name="uni0423" unicode="&#x423;" horiz-adv-x="1204" 
d="M6 1382h352l201 -497q21 -52 52.5 -140t45.5 -124h7q5 18 17.5 65t26.5 99.5t29 105.5l150 491h330l-261 -682q-53 -135 -86.5 -214.5t-85 -177t-100.5 -156.5q-146 -183 -367 -183q-86 0 -153 23l22 250q49 -11 103 -11q67 0 116 37.5t72 89.5q11 27 -6 66z" />
    <glyph glyph-name="uni0424" unicode="&#x424;" horiz-adv-x="1615" 
d="M666 1440h290v-121q93 -7 176 -32t160 -74.5t132.5 -119t88.5 -172t33 -227.5q0 -124 -32.5 -225.5t-87.5 -171t-132.5 -119t-161.5 -75.5t-180 -35v-125h-290v125q-94 7 -177.5 31.5t-160 73.5t-131.5 117.5t-88 169.5t-33 224q0 126 36.5 231.5t95 175.5t137.5 120.5
t160 75.5t165 32v121zM664 287v817q-39 -5 -76.5 -20.5t-75 -48t-65 -77.5t-45 -114.5t-17.5 -153.5q0 -97 25.5 -174.5t67.5 -124t89 -72.5t97 -32zM954 1104v-817q39 4 76.5 18.5t75 46t65 76t45 113.5t17.5 153q0 104 -24.5 183.5t-66.5 125.5t-88.5 70.5t-99.5 30.5z
" />
    <glyph glyph-name="uni0425" unicode="&#x425;" horiz-adv-x="1255" 
d="M1223 0h-361l-125 250q-25 48 -123 248h-4q-28 -78 -108 -248l-113 -250h-356l399 698l-385 682h359l120 -252q61 -125 105 -229h4q37 99 94 229l117 252h356l-389 -673z" />
    <glyph glyph-name="uni0426" unicode="&#x426;" horiz-adv-x="1421" 
d="M137 1380h312v-1124h483v1124h311v-1134l139 -8l-14 -586h-238l-16 348h-977v1380z" />
    <glyph glyph-name="uni0427" unicode="&#x427;" horiz-adv-x="1314" 
d="M123 1380h311v-407q0 -118 60.5 -177t171.5 -59q99 0 202 54v589h312v-1398h-312v577h-6q-149 -70 -309 -70q-196 0 -313 108t-117 321v462z" />
    <glyph glyph-name="uni0428" unicode="&#x428;" horiz-adv-x="1869" 
d="M137 1380h305v-1124h342v1124h306v-1124h342v1124h305v-1380h-1600v1380z" />
    <glyph glyph-name="uni0429" unicode="&#x429;" horiz-adv-x="1912" 
d="M137 1380h305v-1124h340v1124h305v-1124h343v1124h305v-1134l137 -8l-14 -586h-238l-16 348h-1467v1380z" />
    <glyph glyph-name="uni042A" unicode="&#x42a;" horiz-adv-x="1445" 
d="M25 1380h659v-479q98 10 166 10q103 0 196 -29t167 -83t117.5 -141t43.5 -195q0 -188 -110 -301q-173 -176 -553 -176q-196 0 -336 20v1120h-350v254zM684 664v-437q39 -8 113 -8q110 0 180 61.5t70 170.5t-71.5 165t-178.5 56q-51 0 -113 -8z" />
    <glyph glyph-name="uni042B" unicode="&#x42b;" horiz-adv-x="1744" 
d="M137 1380h309v-481q82 12 154 12q87 0 166.5 -17t149 -53t121 -88t81 -127.5t29.5 -166.5q0 -183 -111 -297q-92 -94 -243 -135t-322 -41q-194 0 -334 20v1374zM446 664v-437q33 -8 105 -8q110 0 189 62t79 170q0 57 -24 101t-63.5 69t-84.5 38t-92 13t-109 -8z
M1274 1380h311v-1380h-311v1380z" />
    <glyph glyph-name="uni042C" unicode="&#x42c;" horiz-adv-x="1234" 
d="M137 1380h309v-481q86 12 168 12q114 0 211.5 -27.5t174 -81t120 -140.5t43.5 -199q0 -188 -110 -301q-173 -176 -578 -176q-198 0 -338 20v1374zM446 664v-437q47 -8 115 -8q121 0 198 59t77 171q0 113 -75 168t-196 55q-45 0 -119 -8z" />
    <glyph glyph-name="uni042D" unicode="&#x42d;" horiz-adv-x="1202" 
d="M203 578v243h592q-16 145 -115 237.5t-264 92.5q-145 0 -283 -57l-61 231q177 78 368 78q141 0 256.5 -37.5t195 -103.5t134 -157t79.5 -195.5t25 -221.5q0 -137 -36 -252.5t-100.5 -199t-154.5 -142.5t-198.5 -88t-230.5 -29q-101 0 -198.5 19.5t-156.5 46.5l56 240
q121 -50 274 -50q173 0 281.5 95.5t126.5 249.5h-590z" />
    <glyph glyph-name="uni042E" unicode="&#x42e;" horiz-adv-x="1886" 
d="M135 1380h311v-538h166q42 255 204 409t401 154q142 0 257.5 -55.5t190 -151t114.5 -222t40 -271.5q0 -337 -171.5 -532.5t-451.5 -195.5q-167 0 -296.5 78t-203.5 213.5t-92 311.5h-158v-580h-311v1380zM1208 223q93 0 160.5 62.5t101 168t33.5 240.5q0 128 -32.5 231.5
t-101 168.5t-161.5 65t-162 -64.5t-103 -170t-34 -236.5t34.5 -235.5t103.5 -167t161 -62.5z" />
    <glyph glyph-name="uni042F" unicode="&#x42f;" horiz-adv-x="1228" 
d="M348 0h-332q40 62 70 154q9 26 37 113t42.5 124.5t45.5 93t68 90.5q51 48 114 70v6q-126 24 -208.5 110t-82.5 228q0 182 144 293q144 109 452 109q215 0 396 -29v-1362h-310v541h-75q-91 0 -148 -54q-31 -29 -57.5 -79t-41.5 -92t-35 -107.5t-30 -91.5q-24 -70 -49 -117
zM784 772v373q-46 12 -127 12q-109 0 -176 -48t-67 -148q0 -92 74 -143.5t186 -51.5q81 0 110 6z" />
    <glyph glyph-name="uni0430" unicode="&#x430;" horiz-adv-x="1081" 
d="M958 592v-350q0 -164 17 -242h-281l-18 100h-6q-101 -123 -287 -123q-146 0 -235 91t-89 217q0 190 157 286.5t431 96.5v12q0 53 -39.5 92t-142.5 39q-73 0 -149 -22t-128 -54l-57 201q162 90 389 90q121 0 208.5 -33.5t136.5 -95t71 -136.5t22 -169zM657 365v108
q-290 0 -290 -158q0 -58 33.5 -88t88.5 -30q56 0 101.5 33t60.5 81q6 24 6 54z" />
    <glyph glyph-name="uni0431" unicode="&#x431;" horiz-adv-x="1181" 
d="M1008 1475l-19 -246q-90 -25 -235 -37q-220 -21 -316 -131q-42 -45 -72 -115.5t-36 -132.5h10q47 84 134.5 136t193.5 52q203 0 324.5 -136.5t121.5 -362.5q0 -240 -144 -383.5t-372 -143.5q-128 0 -228 49.5t-164 138.5t-97 209.5t-33 264.5q0 407 215 610
q146 155 418 185q221 24 299 43zM795 494q0 53 -10.5 102t-33 93t-63.5 70.5t-96 26.5q-96 0 -146 -84q-53 -74 -53 -196q0 -52 11.5 -103.5t34.5 -98.5t64 -76t93 -29q69 0 115.5 45.5t65 109t18.5 140.5z" />
    <glyph glyph-name="uni0432" unicode="&#x432;" horiz-adv-x="1130" 
d="M123 4v987q190 25 403 25q496 0 496 -256q0 -90 -60 -145t-145 -70v-6q116 -19 182 -81.5t66 -162.5q0 -309 -592 -309q-208 0 -350 18zM430 817v-207h80q205 0 205 109q0 104 -180 104zM428 430v-252q33 -4 104 -4q58 0 103 11t77.5 41.5t32.5 76.5q0 127 -229 127h-88z
" />
    <glyph glyph-name="uni0433" unicode="&#x433;" horiz-adv-x="851" 
d="M123 1001h698v-241h-387v-760h-311v1001z" />
    <glyph glyph-name="uni0434" unicode="&#x434;" horiz-adv-x="1208" 
d="M258 1001h799v-782l110 -4l-14 -539h-233l-11 324h-633l-14 -324h-235l-9 537l95 6q64 94 100 209q45 151 45 328v245zM528 774v-117q0 -125 -36 -260q-19 -80 -70 -170h332v547h-226z" />
    <glyph glyph-name="uni0435" unicode="&#x435;" horiz-adv-x="1081" 
d="M1010 401h-645q6 -92 86 -141t196 -49q152 0 277 43l41 -211q-149 -63 -363 -63q-253 0 -393.5 136t-140.5 373q0 98 31 191t90.5 171t159 125.5t224.5 47.5q94 0 170.5 -28.5t127 -76t85 -112.5t49.5 -135.5t15 -147.5q0 -66 -10 -123zM362 614h369q0 32 -8 64t-26 65
t-54.5 53.5t-87.5 20.5q-47 0 -84 -19.5t-59 -51.5t-34.5 -65.5t-15.5 -66.5z" />
    <glyph glyph-name="uni0436" unicode="&#x436;" horiz-adv-x="1509" 
d="M2 1001h344l225 -401h33v401h301v-401h31l227 401h344l-348 -432q80 -14 139.5 -83.5t94.5 -170.5q12 -32 36.5 -104t43 -121t38.5 -90h-311q-24 40 -86 229q-60 170 -184 170h-25v-399h-301v399h-24q-66 0 -112 -42t-77 -128q-9 -25 -24.5 -70.5t-23 -66t-19 -47.5
t-21.5 -45h-307q16 33 34 75.5t29.5 73.5t30.5 85t29 81q35 103 93 171.5t138 82.5z" />
    <glyph glyph-name="uni0437" unicode="&#x437;" horiz-adv-x="997" 
d="M225 420l-2 190h150q92 0 140 28t48 73q0 44 -44.5 71t-125.5 27q-131 0 -254 -70l-59 181q169 102 407 102q73 0 140.5 -13.5t129 -43t98 -84t36.5 -127.5q0 -62 -34.5 -110.5t-80.5 -73.5t-100 -38v-8q49 -6 93.5 -22t83 -43t61 -70.5t22.5 -97.5q0 -71 -32.5 -126.5
t-83 -89t-118.5 -55.5t-132 -30t-130 -8q-229 0 -391 96l66 192q53 -29 131.5 -48.5t154.5 -20.5q95 0 144 30t49 76q0 113 -217 113h-150z" />
    <glyph glyph-name="uni0438" unicode="&#x438;" horiz-adv-x="1222" 
d="M123 1001h295v-307q0 -120 -17 -407l9 -2q19 46 55 140t59 146l195 430h381v-1001h-295v305q0 71 2 124.5t7.5 146.5t8.5 161h-8q-59 -165 -104 -268q-35 -76 -107 -239.5t-102 -229.5h-379v1001z" />
    <glyph glyph-name="uni0439" unicode="&#x439;" horiz-adv-x="1222" 
d="M123 1001h295v-307q0 -120 -17 -407l9 -2q19 46 55 140t59 146l195 430h381v-1001h-295v305q0 71 2 124.5t7.5 146.5t8.5 161h-8q-59 -165 -104 -268q-35 -76 -107 -239.5t-102 -229.5h-379v1001zM317 1415h197q2 -68 26.5 -106.5t67.5 -38.5q45 0 70.5 38.5t30.5 106.5
h196q-9 -141 -88 -215t-213 -74q-137 0 -209 76.5t-78 212.5z" />
    <glyph glyph-name="uni043A" unicode="&#x43a;" horiz-adv-x="1085" 
d="M125 1001h311v-399h33l254 399h362l-368 -432q84 -14 145 -85t107 -189q6 -15 49 -127.5t72 -167.5h-326q-7 10 -14 24.5t-12.5 27.5t-14.5 36t-14 37.5t-17 46.5t-18 49q-66 176 -207 176h-31v-397h-311v1001z" />
    <glyph glyph-name="uni043B" unicode="&#x43b;" horiz-adv-x="1118" 
d="M178 1001h817v-1001h-311v764h-217v-184q0 -198 -30.5 -319t-110.5 -185q-92 -99 -291 -99l-35 242q76 13 113 53q40 42 52.5 113t12.5 209v407z" />
    <glyph glyph-name="uni043C" unicode="&#x43c;" horiz-adv-x="1470" 
d="M90 0l70 1001h397l109 -378q50 -184 65 -252h6q20 74 80 274l111 356h393l61 -1001h-288l-17 401q-1 28 -5 155.5t-5 195.5h-6q-14 -47 -29 -102t-29.5 -104.5t-37.5 -121.5l-134 -408h-227l-119 398q-7 24 -82 331h-8q-1 -46 -4.5 -174.5t-5.5 -175.5l-16 -395h-279z
" />
    <glyph glyph-name="uni043D" unicode="&#x43d;" horiz-adv-x="1185" 
d="M123 1001h311v-362h316v362h311v-1001h-311v397h-316v-397h-311v1001z" />
    <glyph glyph-name="uni043E" unicode="&#x43e;" horiz-adv-x="1181" 
d="M604 1026q228 0 369 -143t141 -371q0 -133 -44.5 -237.5t-119.5 -168t-168 -96.5t-196 -33q-226 0 -372 140t-146 377q0 244 146 388t390 144zM594 803q-70 0 -118 -46t-67.5 -111.5t-19.5 -143.5q0 -133 54 -217t151 -84q92 0 145.5 83t53.5 220q0 78 -19.5 143.5
t-66 110.5t-113.5 45z" />
    <glyph glyph-name="uni043F" unicode="&#x43f;" horiz-adv-x="1179" 
d="M123 1001h932v-1001h-314v762h-307v-762h-311v1001z" />
    <glyph glyph-name="uni0440" unicode="&#x440;" horiz-adv-x="1224" 
d="M125 -406v1072q0 147 -8 335h270l14 -139h5q115 162 333 162q82 0 157 -35.5t133 -99.5t92 -161.5t34 -213.5q0 -132 -39.5 -237t-105 -169t-145 -97.5t-165.5 -33.5q-88 0 -156.5 32t-103.5 83h-4v-498h-311zM436 567v-137q0 -35 6 -65q15 -64 66 -106t117 -42
q100 0 157.5 77t57.5 206q0 125 -55 202.5t-156 77.5q-66 0 -119 -44t-68 -113q-6 -24 -6 -56z" />
    <glyph glyph-name="uni0441" unicode="&#x441;" horiz-adv-x="923" 
d="M840 256l37 -229q-96 -47 -279 -47q-243 0 -386.5 138.5t-143.5 373.5q0 111 37.5 207t108.5 168.5t181 114.5t246 42q135 0 238 -39l-50 -231q-69 30 -174 30q-122 0 -196 -78t-72 -202q0 -132 78 -206.5t197 -74.5q100 0 178 33z" />
    <glyph glyph-name="uni0442" unicode="&#x442;" horiz-adv-x="944" 
d="M27 1001h893v-239h-291v-762h-312v762h-290v239z" />
    <glyph glyph-name="uni0443" unicode="&#x443;" horiz-adv-x="1071" 
d="M12 1001h346l150 -493q36 -127 49 -186h8q18 84 43 188l125 491h332l-234 -659q-103 -287 -183 -432.5t-169 -224.5q-137 -121 -299 -138l-67 263q66 14 135 53q35 19 71 53.5t58 71.5q16 26 16 45q0 21 -12 51z" />
    <glyph glyph-name="uni0444" unicode="&#x444;" horiz-adv-x="1474" 
d="M592 1444h293l-4 -424q109 -12 202.5 -50.5t167 -102t115 -158.5t41.5 -211q0 -118 -43 -214t-117 -158t-167 -98.5t-199 -45.5l4 -388h-293l4 388q-107 8 -201 44.5t-168 99t-116.5 157.5t-42.5 211q0 119 42 215.5t115.5 159.5t166.5 100.5t202 48.5zM596 184v633
q-110 -27 -165.5 -111t-55.5 -206q0 -124 55.5 -207t165.5 -109zM879 815v-631q110 27 165.5 110.5t55.5 207.5q0 120 -55.5 203t-165.5 110z" />
    <glyph glyph-name="uni0445" unicode="&#x445;" horiz-adv-x="1062" 
d="M14 1001h348l99 -167q17 -30 45.5 -83t36.5 -67h4q56 114 78 154l88 163h338l-330 -477l334 -524h-353l-100 180q-20 34 -78 152h-6q-19 -40 -76 -152l-94 -180h-342l340 510z" />
    <glyph glyph-name="uni0446" unicode="&#x446;" horiz-adv-x="1206" 
d="M123 1001h311v-763h311v763h312v-782l110 -4l-14 -539h-233l-11 324h-786v1001z" />
    <glyph glyph-name="uni0447" unicode="&#x447;" horiz-adv-x="1142" 
d="M113 1001h311v-313q0 -86 34.5 -127t114.5 -41q37 0 75 12.5t61 30.5v438h311v-1015h-311v376h-4q-99 -63 -252 -63q-163 0 -251.5 91.5t-88.5 268.5v342z" />
    <glyph glyph-name="uni0448" unicode="&#x448;" horiz-adv-x="1665" 
d="M123 1001h309v-763h246v763h309v-763h246v763h309v-1001h-1419v1001z" />
    <glyph glyph-name="uni0449" unicode="&#x449;" horiz-adv-x="1691" 
d="M123 1001h309v-763h246v763h309v-763h246v763h309v-782l111 -4l-15 -539h-233l-10 324h-1272v1001z" />
    <glyph glyph-name="uni044A" unicode="&#x44a;" horiz-adv-x="1331" 
d="M41 1001h594v-294q75 10 164 10q71 0 136 -11t127 -38t107 -67t72 -102.5t27 -140.5q0 -164 -138 -260q-159 -110 -473 -110q-177 0 -333 18v758h-283v237zM633 496v-291q44 -6 106 -6q42 0 78.5 7.5t69.5 24t52 46.5t19 71q0 47 -21 79.5t-57 49t-73 23t-80 6.5
q-42 0 -94 -10z" />
    <glyph glyph-name="uni044B" unicode="&#x44b;" horiz-adv-x="1591" 
d="M123 1001h311v-296q82 12 162 12q69 0 132 -11.5t122 -38t102 -66t69 -100t26 -134.5q0 -173 -138 -269q-159 -110 -452 -110q-178 0 -334 18v995zM432 496v-293q54 -4 94 -4q89 0 150 38t61 119q0 78 -57.5 114t-138.5 36q-61 0 -109 -10zM1157 1001h311v-1001h-311
v1001z" />
    <glyph glyph-name="uni044C" unicode="&#x44c;" horiz-adv-x="1134" 
d="M123 1001h311v-296q86 12 158 12q73 0 139.5 -10.5t129.5 -36t108.5 -64t73.5 -99.5t28 -138q0 -176 -137 -271q-159 -110 -477 -110q-178 0 -334 18v995zM432 496v-291q44 -6 105 -6q57 0 104.5 12.5t84 49t36.5 93.5q0 44 -21.5 75.5t-58 47t-73.5 22.5t-77 7
q-48 0 -100 -10z" />
    <glyph glyph-name="uni044D" unicode="&#x44d;" horiz-adv-x="993" 
d="M170 406v196h438q-16 91 -83 143t-185 52q-119 0 -223 -45l-58 198q142 74 334 74q229 0 367 -123q164 -147 164 -397q0 -239 -154 -383t-418 -144q-177 0 -307 68l45 211q102 -41 232 -41q110 0 185 50t95 141h-432z" />
    <glyph glyph-name="uni044E" unicode="&#x44e;" horiz-adv-x="1579" 
d="M123 1001h309v-372h129q35 184 161 290.5t314 106.5q212 0 343.5 -143t131.5 -371q0 -129 -40 -232.5t-108.5 -168.5t-156 -99.5t-184.5 -34.5q-186 0 -313.5 113.5t-153.5 310.5h-123v-401h-309v1001zM1028 199q84 0 128 84.5t44 218.5q0 81 -17 147t-57 110t-98 44
q-61 0 -102 -45t-58.5 -111t-17.5 -147q0 -131 45 -216t133 -85z" />
    <glyph glyph-name="uni044F" unicode="&#x44f;" horiz-adv-x="1132" 
d="M1010 995v-995h-308v377h-63q-89 0 -143 -72q-15 -15 -28 -33.5t-25.5 -46t-19 -44t-19.5 -53t-17 -46.5q-4 -11 -39 -82h-332q34 42 64 111q2 6 25 64t34.5 83t34.5 65.5t45 63.5q57 61 127 74v6q-45 5 -88.5 22t-82.5 46t-63 76t-24 104q0 163 170 241q124 62 369 62
q176 0 383 -23zM702 567v250q-54 8 -106 8q-81 0 -133.5 -33t-52.5 -98q0 -61 57 -95t133 -34q27 0 59 1t43 1z" />
    <glyph glyph-name="uni0451" unicode="&#x451;" horiz-adv-x="1081" 
d="M1010 401h-645q6 -92 86 -141t196 -49q152 0 277 43l41 -211q-149 -63 -363 -63q-253 0 -393.5 136t-140.5 373q0 98 31 191t90.5 171t159 125.5t224.5 47.5q94 0 170.5 -28.5t127 -76t85 -112.5t49.5 -135.5t15 -147.5q0 -66 -10 -123zM362 614h369q0 32 -8 64t-26 65
t-54.5 53.5t-87.5 20.5q-47 0 -84 -19.5t-59 -51.5t-34.5 -65.5t-15.5 -66.5zM358 1139q-61 0 -103 42.5t-42 102.5q0 61 42.5 102t104.5 41q59 0 99.5 -41t40.5 -102t-40.5 -103t-101.5 -42zM791 1139h-5q-60 0 -100.5 42.5t-40.5 102.5q0 62 41.5 102.5t104.5 40.5
q60 0 100.5 -41t40.5 -102t-40 -103t-101 -42z" />
    <glyph glyph-name="uni0452" unicode="&#x452;" horiz-adv-x="1200" 
d="M4 1315h148v139h311v-139h432v-205h-432v-221h4q112 108 262 108q195 0 301 -182q96 -150 96 -405q0 -228 -66 -389.5t-192 -237.5q-126 -81 -237 -88l-60 248q90 17 148 77q41 46 67.5 145.5t26.5 219.5q0 173 -51 270q-49 90 -137 90q-40 0 -77 -19.5t-61 -47.5
q-24 -31 -24 -84v-594h-311v1110h-148v205z" />
    <glyph glyph-name="uni0453" unicode="&#x453;" horiz-adv-x="851" 
d="M123 1001h698v-241h-387v-760h-311v1001zM489 1438h289l-250 -312h-213z" />
    <glyph glyph-name="uni0454" unicode="&#x454;" horiz-adv-x="966" 
d="M922 973l-56 -215q-88 41 -200 41t-184.5 -53t-90.5 -144h418v-196h-412q19 -94 92 -144.5t187 -50.5q106 0 203 37l45 -213q-47 -24 -128 -41t-173 -17q-255 0 -405 139.5t-150 375.5q0 127 46 229t126.5 167.5t187.5 100.5t231 35q74 0 147.5 -14.5t115.5 -36.5z" />
    <glyph glyph-name="uni0455" unicode="&#x455;" horiz-adv-x="888" 
d="M68 49l55 221q46 -28 124 -50.5t144 -22.5q133 0 133 82q0 40 -29.5 63.5t-115.5 52.5q-150 50 -219.5 128t-67.5 173q0 143 112.5 236.5t295.5 93.5q164 0 280 -59l-53 -215q-40 22 -99.5 39.5t-117.5 17.5q-56 0 -87.5 -21.5t-31.5 -58.5q0 -36 34 -60t128 -57
q140 -49 204 -124t66 -185q0 -146 -111.5 -236t-320.5 -90q-190 0 -323 72z" />
    <glyph glyph-name="uni0456" unicode="&#x456;" horiz-adv-x="561" 
d="M436 0h-311v1001h311v-1001zM283 1436q73 0 117 -44t46 -112q0 -67 -45.5 -111.5t-121.5 -44.5q-72 0 -117 45t-45 111q0 67 46 111.5t120 44.5z" />
    <glyph glyph-name="uni0457" unicode="&#x457;" horiz-adv-x="561" 
d="M436 0h-311v1001h311v-1001zM66 1139q-61 0 -103.5 42.5t-42.5 102.5q0 61 43 102t105 41q59 0 99 -41t40 -102t-40 -103t-101 -42zM498 1139h-4q-60 0 -101 42.5t-41 102.5q0 62 41.5 102.5t104.5 40.5q60 0 100.5 -41t40.5 -102t-40 -103t-101 -42z" />
    <glyph glyph-name="uni0458" unicode="&#x458;" horiz-adv-x="595" 
d="M-49 -440l-31 243q131 10 184 66q34 36 48 107.5t14 218.5v806h311v-882q0 -160 -34.5 -265t-106.5 -171q-132 -123 -385 -123zM322 1436q73 0 117 -44t46 -112q0 -66 -46 -111t-122 -45q-72 0 -116.5 45t-44.5 111q0 67 46 111.5t120 44.5z" />
    <glyph glyph-name="uni0459" unicode="&#x459;" horiz-adv-x="1687" 
d="M182 1001h813v-301q79 11 156 11q72 0 138 -11.5t128 -38.5t107.5 -67t72.5 -101.5t27 -138.5q0 -161 -125 -254q-151 -112 -475 -112q-184 0 -340 18v758h-215v-184q0 -194 -31.5 -316t-111.5 -188q-95 -99 -291 -99l-33 242q68 12 111 51q42 39 55.5 115t13.5 209v407z
M993 494v-291q58 -4 103 -4q40 0 76 7t69.5 23.5t53.5 47.5t20 73q0 56 -34.5 92t-78.5 48t-96 12q-47 0 -113 -8z" />
    <glyph glyph-name="uni045A" unicode="&#x45a;" horiz-adv-x="1720" 
d="M123 1001h311v-337h285v337h311v-305q93 13 158 13q71 0 136.5 -12t126.5 -39.5t106 -68t71.5 -101.5t26.5 -136q0 -160 -125 -252q-148 -112 -473 -112q-182 0 -338 18v428h-285v-434h-311v1001zM1028 492v-287q41 -6 102 -6q40 0 75.5 7.5t68.5 23.5t52.5 46.5
t19.5 71.5q0 43 -18.5 74.5t-51 47.5t-67.5 23t-76 7q-43 0 -105 -8z" />
    <glyph glyph-name="uni045B" unicode="&#x45b;" horiz-adv-x="1224" 
d="M4 1315h148v139h311v-139h407v-205h-407v-254h4q46 60 121 100q77 41 164 41q166 0 258 -113.5t92 -322.5v-561h-311v524q0 221 -162 221q-58 0 -97 -31.5t-59 -78.5q-10 -23 -10 -70v-565h-311v1110h-148v205z" />
    <glyph glyph-name="uni045C" unicode="&#x45c;" horiz-adv-x="1085" 
d="M125 1001h311v-399h33l254 399h362l-368 -432q84 -14 145 -85t107 -189q6 -15 49 -127.5t72 -167.5h-326q-7 10 -14 24.5t-12.5 27.5t-14.5 36t-14 37.5t-17 46.5t-18 49q-66 176 -207 176h-31v-397h-311v1001zM575 1438h287l-250 -312h-213z" />
    <glyph glyph-name="uni045E" unicode="&#x45e;" horiz-adv-x="1071" 
d="M242 1415h196q2 -68 26.5 -106.5t67.5 -38.5q45 0 70.5 38.5t30.5 106.5h196q-9 -141 -88 -215t-213 -74q-137 0 -208.5 76.5t-77.5 212.5zM12 1001h346l150 -493q36 -127 49 -186h8q18 84 43 188l125 491h332l-234 -659q-103 -287 -183 -432.5t-169 -224.5
q-137 -121 -299 -138l-67 263q66 14 135 53q35 19 71 53.5t58 71.5q16 26 16 45q0 21 -12 51z" />
    <glyph glyph-name="uni045F" unicode="&#x45f;" horiz-adv-x="1179" 
d="M123 1001h313v-763h309v763h312v-1001h-326l-16 -338h-250l-19 338h-323v1001z" />
    <glyph glyph-name="uni0490" unicode="&#x490;" horiz-adv-x="1007" 
d="M135 1380h600l33 267h223l-22 -523h-523v-1124h-311v1380z" />
    <glyph glyph-name="uni0491" unicode="&#x491;" horiz-adv-x="882" 
d="M123 1001h479l29 242h217l-19 -483h-395v-760h-311v1001z" />
    <glyph glyph-name="uni04D9" unicode="&#x4d9;" horiz-adv-x="671" 
d="M156 745l-41 207q170 72 366 72q250 0 390.5 -137.5t140.5 -372.5q0 -78 -19 -153t-59.5 -144.5t-98 -122t-141.5 -83.5t-184 -31q-95 0 -172.5 28.5t-128.5 76t-85.5 112t-49.5 135t-15 147.5q0 71 13 121h643q-6 96 -79.5 144.5t-197.5 48.5q-142 0 -282 -48zM717 387
h-369q0 -31 8.5 -63t27.5 -64.5t56 -53t88 -20.5q47 0 84 19.5t58 51.5t32.5 64.5t14.5 65.5z" />
    <glyph glyph-name="Wgrave" unicode="&#x1e80;" horiz-adv-x="1818" 
d="M700 0h-342l-327 1380h334l104 -567q18 -98 82 -483h4q28 181 90 487l117 563h332l110 -581q43 -226 74 -463h4q12 90 80 481l113 563h317l-356 -1380h-338l-117 594q-48 246 -66 426h-4q-44 -274 -80 -426zM561 1708h328l172 -250h-250z" />
    <glyph glyph-name="wgrave" unicode="&#x1e81;" horiz-adv-x="1554" 
d="M23 1001h317l82 -411q44 -251 55 -328h6q8 52 19 103.5t30.5 130t22.5 92.5l107 413h245l101 -399q52 -207 73 -340h4q19 153 60 342l84 397h305l-307 -1001h-291l-94 350q-38 136 -66 314h-4q-25 -171 -63 -312l-101 -352h-293zM467 1438h287l176 -312h-213z" />
    <glyph glyph-name="Wacute" unicode="&#x1e82;" horiz-adv-x="1818" 
d="M700 0h-342l-327 1380h334l104 -567q18 -98 82 -483h4q28 181 90 487l117 563h332l110 -581q43 -226 74 -463h4q12 90 80 481l113 563h317l-356 -1380h-338l-117 594q-48 246 -66 426h-4q-44 -274 -80 -426zM958 1706h328l-250 -252h-250z" />
    <glyph glyph-name="wacute" unicode="&#x1e83;" horiz-adv-x="1554" 
d="M23 1001h317l82 -411q44 -251 55 -328h6q8 52 19 103.5t30.5 130t22.5 92.5l107 413h245l101 -399q52 -207 73 -340h4q19 153 60 342l84 397h305l-307 -1001h-291l-94 350q-38 136 -66 314h-4q-25 -171 -63 -312l-101 -352h-293zM813 1438h287l-250 -312h-213z" />
    <glyph glyph-name="Wdieresis" unicode="&#x1e84;" horiz-adv-x="1818" 
d="M700 0h-342l-327 1380h334l104 -567q18 -98 82 -483h4q28 181 90 487l117 563h332l110 -581q43 -226 74 -463h4q12 90 80 481l113 563h317l-356 -1380h-338l-117 594q-48 246 -66 426h-4q-44 -274 -80 -426zM717 1460q-58 0 -98.5 41t-40.5 98q0 60 40.5 101t100.5 41
q57 0 96 -40.5t39 -101.5q0 -58 -39 -98.5t-98 -40.5zM1141 1460q-59 0 -98 40.5t-39 98.5q0 60 39.5 101t99.5 41q59 0 98 -40.5t39 -101.5q0 -58 -39.5 -98.5t-99.5 -40.5z" />
    <glyph glyph-name="wdieresis" unicode="&#x1e85;" horiz-adv-x="1554" 
d="M23 1001h317l82 -411q44 -251 55 -328h6q8 52 19 103.5t30.5 130t22.5 92.5l107 413h245l101 -399q52 -207 73 -340h4q19 153 60 342l84 397h305l-307 -1001h-291l-94 350q-38 136 -66 314h-4q-25 -171 -63 -312l-101 -352h-293zM561 1139q-61 0 -103 42.5t-42 102.5
q0 61 42.5 102t104.5 41q59 0 99 -41t40 -102t-40 -103t-101 -42zM993 1139h-4q-60 0 -100.5 42.5t-40.5 102.5q0 62 41 102.5t104 40.5q60 0 101 -41t41 -102t-40.5 -103t-101.5 -42z" />
    <glyph glyph-name="uni1EA0" unicode="&#x1ea0;" horiz-adv-x="1343" 
d="M852 354h-395l-99 -354h-321l420 1380h409l430 -1380h-338zM502 588h305l-86 293q-26 84 -70 266h-4q-5 -19 -27.5 -119t-35.5 -147zM657 -164q60 0 100 -40t40 -103q0 -61 -40.5 -103.5t-101.5 -42.5t-102 42.5t-41 103.5t41.5 102t103.5 41z" />
    <glyph glyph-name="uni1EA1" unicode="&#x1ea1;" horiz-adv-x="1081" 
d="M958 592v-350q0 -164 17 -242h-281l-18 100h-6q-101 -123 -287 -123q-146 0 -235 91t-89 217q0 190 157 286.5t431 96.5v12q0 53 -39.5 92t-142.5 39q-73 0 -149 -22t-128 -54l-57 201q162 90 389 90q121 0 208.5 -33.5t136.5 -95t71 -136.5t22 -169zM657 365v108
q-290 0 -290 -158q0 -58 33.5 -88t88.5 -30q56 0 101.5 33t60.5 81q6 24 6 54zM543 -164q60 0 99.5 -41t39.5 -104q0 -60 -40 -102t-101 -42t-102.5 42.5t-41.5 101.5q0 63 42 104t104 41z" />
    <glyph glyph-name="uni1EA2" unicode="&#x1ea2;" horiz-adv-x="1343" 
d="M852 354h-395l-99 -354h-321l420 1380h409l430 -1380h-338zM502 588h305l-86 293q-26 84 -70 266h-4q-5 -19 -27.5 -119t-35.5 -147zM745 1446l-143 31q12 38 37.5 68.5t44 54t18.5 51.5t-17.5 45.5t-43.5 17.5q-50 0 -92 -72l-98 62q84 162 249 162q83 0 141 -51.5
t58 -122.5q0 -42 -17 -75.5t-39 -54t-51.5 -52.5t-46.5 -64z" />
    <glyph glyph-name="uni1EA3" unicode="&#x1ea3;" horiz-adv-x="1081" 
d="M958 592v-350q0 -164 17 -242h-281l-18 100h-6q-101 -123 -287 -123q-146 0 -235 91t-89 217q0 190 157 286.5t431 96.5v12q0 53 -39.5 92t-142.5 39q-73 0 -149 -22t-128 -54l-57 201q162 90 389 90q121 0 208.5 -33.5t136.5 -95t71 -136.5t22 -169zM657 365v108
q-290 0 -290 -158q0 -58 33.5 -88t88.5 -30q56 0 101.5 33t60.5 81q6 24 6 54zM594 1081l-148 33q10 39 38.5 74.5t50.5 65t22 61.5q0 30 -17.5 47.5t-43.5 17.5q-50 0 -88 -69l-103 63q83 162 248 162q87 0 145 -50.5t58 -127.5q0 -46 -19.5 -86.5t-44.5 -65.5t-54.5 -59.5
t-43.5 -65.5z" />
    <glyph glyph-name="uni1EA4" unicode="&#x1ea4;" horiz-adv-x="1343" 
d="M852 354h-395l-99 -354h-321l420 1380h407l430 -1380h-336zM502 588h305l-86 293q-26 84 -70 266h-4q-5 -19 -27.5 -119t-35.5 -147zM565 1706h217l185 -252h-201l-90 129h-4l-90 -129h-199zM1020 1874h266l-274 -234h-150z" />
    <glyph glyph-name="uni1EA5" unicode="&#x1ea5;" horiz-adv-x="1081" 
d="M958 592v-350q0 -164 17 -242h-281l-18 100h-6q-101 -123 -287 -123q-146 0 -235 91t-89 217q0 190 157 286.5t431 96.5v12q0 53 -39.5 92t-142.5 39q-73 0 -149 -22t-128 -54l-57 201q162 90 389 90q121 0 208.5 -33.5t136.5 -95t71 -136.5t22 -169zM657 365v108
q-290 0 -290 -158q0 -58 33.5 -88t88.5 -30q56 0 101.5 33t60.5 81q6 24 6 54zM422 1438h217l182 -312h-198l-91 179h-4l-92 -179h-198zM901 1634h238l-236 -307h-160z" />
    <glyph glyph-name="uni1EA6" unicode="&#x1ea6;" horiz-adv-x="1343" 
d="M854 354h-397l-99 -354h-321l420 1380h409l430 -1380h-335zM502 588h305l-86 293q-26 84 -70 266h-4q-5 -19 -27.5 -119t-35.5 -147zM727 1845h268l135 -231h-163zM553 1706h217l184 -252h-200l-90 129h-5l-90 -129h-198z" />
    <glyph glyph-name="uni1EA7" unicode="&#x1ea7;" horiz-adv-x="1081" 
d="M958 592v-348q0 -163 17 -244h-281l-18 100h-6q-101 -123 -287 -123q-146 0 -235 91t-89 217q0 190 157 286.5t431 96.5v12q0 53 -39.5 92t-142.5 39q-73 0 -149 -22t-128 -54l-57 201q162 90 389 90q121 0 208.5 -33.5t136.5 -95t71 -136.5t22 -169zM657 365v108
q-290 0 -290 -158q0 -58 33.5 -88t88.5 -30q56 0 101.5 33t60.5 81q6 24 6 54zM616 1636h234l139 -309h-155zM424 1438h217l182 -312h-196l-92 179h-5l-90 -179h-198z" />
    <glyph glyph-name="uni1EA8" unicode="&#x1ea8;" horiz-adv-x="1343" 
d="M854 354h-397l-97 -354h-323l422 1380h407l430 -1380h-338zM502 588h305l-86 293q-11 41 -35 133t-35 133h-4q-5 -19 -27.5 -119t-35.5 -147zM555 1704h217l184 -250h-200l-90 129h-4l-91 -129h-198zM1042 1552l-118 29q11 35 36.5 65.5t44.5 53.5t19 49q0 27 -18 44
t-43 17q-55 0 -95 -73l-92 55q81 152 230 152q79 0 131.5 -47t52.5 -115q0 -38 -16 -68t-37 -49t-49.5 -50t-45.5 -63z" />
    <glyph glyph-name="uni1EA9" unicode="&#x1ea9;" horiz-adv-x="1081" 
d="M958 592v-348q0 -167 19 -244h-281l-20 100h-6q-101 -123 -287 -123q-146 0 -235 91t-89 217q0 190 157 286.5t431 96.5v12q0 53 -39.5 92t-142.5 39q-73 0 -149 -22t-128 -54l-57 201q162 90 389 90q121 0 208.5 -33.5t136.5 -95t71 -136.5t22 -169zM657 365v108
q-290 0 -290 -158q0 -58 33.5 -88t88.5 -30q56 0 101.5 33t60.5 81q6 24 6 54zM422 1438h217l182 -312h-198l-91 179h-4l-90 -179h-198zM905 1296l-131 29q14 41 54 86.5t40 77.5q0 26 -16 42.5t-41 16.5t-48.5 -20.5t-37.5 -46.5l-92 57q78 150 233 150q76 0 130.5 -48.5
t54.5 -113.5q0 -51 -24.5 -85.5t-63.5 -71.5t-58 -73z" />
    <glyph glyph-name="uni1EAA" unicode="&#x1eaa;" horiz-adv-x="1343" 
d="M852 354h-395l-99 -354h-321l420 1380h409l430 -1380h-338zM502 588h305l-86 293q-26 84 -70 266h-4q-5 -19 -27.5 -119t-35.5 -147zM549 1706h233l207 -252h-219l-102 127h-4l-103 -127h-217zM530 1739h-147q-1 107 44.5 169t123.5 62q55 0 131 -39q68 -35 88 -35
q25 0 37 17t16 63h144q8 -235 -168 -235q-27 0 -54 8t-39 14t-44 23q-4 2 -16.5 8t-15.5 7.5t-12 5.5t-13.5 5t-11 2t-13.5 1q-44 0 -50 -76z" />
    <glyph glyph-name="uni1EAB" unicode="&#x1eab;" horiz-adv-x="1081" 
d="M958 592v-350q0 -164 17 -242h-281l-18 100h-6q-101 -123 -287 -123q-146 0 -235 91t-89 217q0 190 157 286.5t431 96.5v12q0 53 -39.5 92t-142.5 39q-73 0 -149 -22t-128 -54l-57 201q162 90 389 90q121 0 208.5 -33.5t136.5 -95t71 -136.5t22 -169zM657 365v108
q-290 0 -290 -158q0 -58 33.5 -88t88.5 -30q56 0 101.5 33t60.5 81q6 24 6 54zM432 1393h215l195 -267h-203l-96 146h-4l-99 -146h-202zM403 1425h-147q-1 107 44.5 169.5t123.5 62.5q55 0 131 -39q68 -35 88 -35q27 0 38.5 17t14.5 65h144q8 -238 -168 -238q-20 0 -40.5 5
t-32 9.5t-34.5 16.5t-30 15q-58 28 -82 28q-44 0 -50 -76z" />
    <glyph glyph-name="uni1EAC" unicode="&#x1eac;" horiz-adv-x="1343" 
d="M852 354h-395l-99 -354h-321l420 1380h409l430 -1380h-338zM502 588h305l-86 293q-26 84 -70 266h-4q-5 -19 -27.5 -119t-35.5 -147zM551 1706h233l207 -252h-219l-102 127h-4l-103 -127h-217zM651 -444q-59 0 -100 41.5t-41 97.5q0 60 41.5 100.5t101.5 40.5
q59 0 98.5 -40.5t39.5 -100.5q0 -56 -40.5 -97.5t-99.5 -41.5z" />
    <glyph glyph-name="uni1EAD" unicode="&#x1ead;" horiz-adv-x="1081" 
d="M958 592v-350q0 -164 17 -242h-281l-18 100h-6q-101 -123 -287 -123q-146 0 -235 91t-89 217q0 190 157 286.5t431 96.5v12q0 53 -39.5 92t-142.5 39q-73 0 -149 -22t-128 -54l-57 201q162 90 389 90q121 0 208.5 -33.5t136.5 -95t71 -136.5t22 -169zM657 365v108
q-290 0 -290 -158q0 -58 33.5 -88t88.5 -30q56 0 101.5 33t60.5 81q6 24 6 54zM436 1438h209l203 -312h-203l-102 179h-4l-105 -179h-203zM543 -164q60 0 99.5 -41t39.5 -104q0 -60 -40 -102t-101 -42t-102.5 42.5t-41.5 101.5q0 63 42 104t104 41z" />
    <glyph glyph-name="uni1EAE" unicode="&#x1eae;" horiz-adv-x="1343" 
d="M854 354h-397l-99 -354h-323l422 1380h409l430 -1380h-338zM502 588h305l-86 293q-26 84 -70 266h-4q-5 -19 -27.5 -119t-35.5 -147zM375 1679h141q11 -42 49 -68t103 -26q129 0 155 94h135q-11 -105 -87.5 -177t-206.5 -72q-131 0 -203.5 69t-85.5 180zM707 1892h276
l-254 -233h-166z" />
    <glyph glyph-name="uni1EAF" unicode="&#x1eaf;" horiz-adv-x="1081" 
d="M958 592v-350q0 -164 17 -242h-281l-18 100h-6q-101 -123 -287 -123q-146 0 -235 91t-89 217q0 190 157 286.5t431 96.5v12q0 53 -39.5 92t-142.5 39q-73 0 -149 -22t-128 -54l-57 201q162 90 389 90q121 0 208.5 -33.5t136.5 -95t71 -136.5t22 -169zM657 365v108
q-290 0 -290 -158q0 -58 33.5 -88t88.5 -30q56 0 101.5 33t60.5 81q6 24 6 54zM594 1657h240l-252 -301h-162zM209 1376h147q8 -56 51.5 -90.5t110.5 -34.5q73 0 116 35.5t48 89.5h147q-5 -131 -89 -210t-222 -79q-140 0 -223 81t-86 208z" />
    <glyph glyph-name="uni1EB0" unicode="&#x1eb0;" horiz-adv-x="1343" 
d="M854 354h-397l-99 -354h-321l420 1380h409l430 -1380h-335zM502 588h305l-86 293q-11 41 -35 133t-35 133h-4q-5 -19 -27.5 -119t-35.5 -147zM369 1892h276l141 -233h-163zM385 1679h141q11 -42 49 -68t103 -26q127 0 153 94h138q-13 -105 -89.5 -177t-205.5 -72
q-131 0 -203.5 69t-85.5 180z" />
    <glyph glyph-name="uni1EB1" unicode="&#x1eb1;" horiz-adv-x="1081" 
d="M958 592v-348q0 -163 17 -244h-281l-18 100h-6q-101 -123 -287 -123q-146 0 -235 91t-89 217q0 190 157 286.5t431 96.5v12q0 24 -7.5 44.5t-25.5 41.5t-57 33t-94 12q-73 0 -148 -21.5t-127 -54.5l-57 201q162 90 389 90q121 0 208.5 -33.5t136.5 -95t71 -136.5t22 -169
zM657 365v108q-290 0 -290 -158q0 -58 33.5 -88t88.5 -30q56 0 101.5 33t60.5 81q6 24 6 54zM227 1657h240l176 -301h-164zM227 1374h148q9 -56 52.5 -89.5t111.5 -33.5q73 0 115.5 35t47.5 88h148q-5 -130 -89.5 -208.5t-223.5 -78.5q-140 0 -223.5 80.5t-86.5 206.5z" />
    <glyph glyph-name="uni1EB2" unicode="&#x1eb2;" horiz-adv-x="1343" 
d="M854 354h-397l-99 -354h-321l420 1380h409l430 -1380h-338zM502 588h305l-86 293q-26 84 -70 266h-4q-5 -19 -27.5 -119t-35.5 -147zM725 1632l-127 29q14 41 54 87.5t40 78.5q0 25 -16 42t-41 17q-46 0 -88 -67l-90 55q78 149 233 149q76 0 129 -47.5t53 -111.5
q0 -40 -16 -72.5t-37 -51t-49 -48.5t-45 -60zM387 1679h141q12 -42 49.5 -69t102.5 -27q128 0 154 96h137q-11 -105 -88 -177t-207 -72q-132 0 -205 69t-84 180z" />
    <glyph glyph-name="uni1EB3" unicode="&#x1eb3;" horiz-adv-x="1081" 
d="M958 592v-348q0 -163 17 -244h-281l-18 100h-6q-101 -123 -287 -123q-146 0 -235 91t-89 217q0 190 157 286.5t431 96.5v12q0 53 -39.5 92t-142.5 39q-73 0 -148 -21.5t-129 -54.5l-57 201q162 90 389 90q121 0 208.5 -33.5t136.5 -95t71 -136.5t22 -169zM657 365v108
q-290 0 -290 -158q0 -58 33.5 -88t88.5 -30q56 0 101.5 33t60.5 81q6 24 6 54zM580 1331l-129 29q11 35 35 63.5t41.5 50.5t17.5 48t-17 42.5t-41 16.5q-51 0 -86 -68l-92 58q77 151 232 151q77 0 131.5 -49t54.5 -114q0 -39 -16 -70t-37 -50t-49 -48.5t-45 -59.5zM223 1374
h148q8 -57 50.5 -91t110.5 -34q73 0 116 35.5t48 89.5h148q-5 -130 -90 -208.5t-222 -78.5q-140 0 -223 80t-86 207z" />
    <glyph glyph-name="uni1EB4" unicode="&#x1eb4;" horiz-adv-x="1343" 
d="M852 354h-395l-99 -354h-321l420 1380h409l428 -1380h-336zM502 588h305l-86 293q-26 84 -70 266h-4q-5 -19 -27.5 -119t-35.5 -147zM528 1741h-149q0 98 45.5 157.5t122.5 59.5q55 0 131 -39q64 -35 88 -35q25 0 37 17t16 63h144q8 -235 -168 -235q-58 0 -138 45
q-58 28 -82 28q-40 0 -47 -61zM373 1679h141q11 -42 49 -68t103 -26q127 0 153 94h137q-11 -104 -88 -176.5t-206 -72.5q-132 0 -205 69t-84 180z" />
    <glyph glyph-name="uni1EB5" unicode="&#x1eb5;" horiz-adv-x="1081" 
d="M958 592v-350q0 -164 17 -242h-281l-18 100h-6q-101 -123 -287 -123q-146 0 -235 91t-89 217q0 190 157 286.5t431 96.5v12q0 53 -39.5 92t-142.5 39q-73 0 -149 -22t-128 -54l-57 201q162 90 389 90q121 0 208.5 -33.5t136.5 -95t71 -136.5t22 -169zM657 365v108
q-290 0 -290 -158q0 -58 33.5 -88t88.5 -30q56 0 101.5 33t60.5 81q6 24 6 54zM395 1456h-149q0 98 45.5 157.5t122.5 59.5q53 0 133 -39q64 -35 88 -35q26 0 37.5 17t15.5 65h143q9 -237 -167 -237q-16 0 -31 2.5t-31.5 8t-25.5 9.5t-27.5 13t-24.5 12q-4 2 -16.5 8
t-15.5 7.5t-12 5.5t-13.5 5t-11 2t-13.5 1q-40 0 -47 -62zM236 1374h147q8 -56 49 -93.5t103 -37.5q69 0 109.5 38.5t45.5 92.5h148q-5 -129 -85 -206.5t-218 -77.5q-139 0 -217.5 78.5t-81.5 205.5z" />
    <glyph glyph-name="uni1EB6" unicode="&#x1eb6;" horiz-adv-x="1343" 
d="M852 354h-395l-99 -354h-321l420 1380h409l430 -1380h-338zM502 588h305l-86 293q-26 84 -70 266h-4q-5 -19 -27.5 -119t-35.5 -147zM375 1737h166q5 -40 33.5 -67.5t87.5 -27.5q110 0 129 95h159q-3 -118 -74.5 -188t-213.5 -70q-144 0 -214 69.5t-73 188.5zM653 -444
q-59 0 -100 41.5t-41 97.5q0 60 41.5 100.5t101.5 40.5q59 0 98.5 -40.5t39.5 -100.5q0 -56 -40.5 -97.5t-99.5 -41.5z" />
    <glyph glyph-name="uni1EB7" unicode="&#x1eb7;" horiz-adv-x="1081" 
d="M958 592v-350q0 -164 17 -242h-281l-18 100h-6q-101 -123 -287 -123q-146 0 -235 91t-89 217q0 190 157 286.5t431 96.5v12q0 53 -39.5 92t-142.5 39q-73 0 -149 -22t-128 -54l-57 201q162 90 389 90q121 0 208.5 -33.5t136.5 -95t71 -136.5t22 -169zM657 365v108
q-290 0 -290 -158q0 -58 33.5 -88t88.5 -30q56 0 101.5 33t60.5 81q6 24 6 54zM256 1417h162q17 -125 121 -125q59 0 90.5 35.5t34.5 89.5h161q-2 -133 -76 -212t-210 -79q-137 0 -209 81t-74 210zM543 -164q60 0 99.5 -41t39.5 -104q0 -60 -40 -102t-101 -42t-102.5 42.5
t-41.5 101.5q0 63 42 104t104 41z" />
    <glyph glyph-name="uni1EB8" unicode="&#x1eb8;" horiz-adv-x="1093" 
d="M956 838v-254h-507v-328h567v-256h-879v1380h850v-256h-538v-286h507zM547 -444q-59 0 -100 41.5t-41 97.5q0 60 41.5 100.5t101.5 40.5q58 0 97.5 -40.5t39.5 -100.5q0 -57 -40 -98t-99 -41z" />
    <glyph glyph-name="uni1EB9" unicode="&#x1eb9;" horiz-adv-x="1081" 
d="M1010 401h-645q6 -92 86 -141t196 -49q152 0 277 43l41 -211q-149 -63 -363 -63q-253 0 -393.5 136t-140.5 373q0 98 31 191t90.5 171t159 125.5t224.5 47.5q94 0 170.5 -28.5t127 -76t85 -112.5t49.5 -135.5t15 -147.5q0 -66 -10 -123zM362 614h369q0 32 -8 64t-26 65
t-54.5 53.5t-87.5 20.5q-47 0 -84 -19.5t-59 -51.5t-34.5 -65.5t-15.5 -66.5zM543 -164q60 0 99.5 -41t39.5 -104q0 -60 -40 -102t-101 -42t-102.5 42.5t-41.5 101.5q0 63 42 104t104 41z" />
    <glyph glyph-name="uni1EBA" unicode="&#x1eba;" horiz-adv-x="1093" 
d="M956 838v-254h-507v-328h567v-256h-879v1380h850v-256h-538v-286h507zM653 1446l-145 31q13 38 39 69t44.5 54.5t18.5 52.5q0 27 -17 44t-44 17q-49 0 -92 -69l-99 59q81 162 250 162q83 0 141 -51.5t58 -122.5q0 -42 -17 -75.5t-39 -54t-51.5 -52.5t-46.5 -64z" />
    <glyph glyph-name="uni1EBB" unicode="&#x1ebb;" horiz-adv-x="1081" 
d="M1010 401h-645q6 -92 86 -141t196 -49q152 0 277 43l41 -211q-149 -63 -363 -63q-253 0 -393.5 136t-140.5 373q0 98 31 191t90.5 171t159 125.5t224.5 47.5q94 0 170.5 -28.5t127 -76t85 -112.5t49.5 -135.5t15 -147.5q0 -66 -10 -123zM362 614h369q0 32 -8 64t-26 65
t-54.5 53.5t-87.5 20.5q-47 0 -84 -19.5t-59 -51.5t-34.5 -65.5t-15.5 -66.5zM594 1079l-150 33q9 32 28.5 61t37 47t31.5 42.5t14 50.5q0 30 -17 47.5t-44 17.5q-50 0 -88 -69l-103 63q81 162 250 162q87 0 145 -50.5t58 -127.5q0 -46 -19.5 -86.5t-44.5 -65.5t-54.5 -59.5
t-43.5 -65.5z" />
    <glyph glyph-name="uni1EBC" unicode="&#x1ebc;" horiz-adv-x="1093" 
d="M954 838v-254h-505v-328h565v-256h-877v1380h848v-256h-536v-286h505zM440 1464h-143q-3 126 40 193t118 67q65 0 131 -41q67 -38 90 -38q26 0 37.5 18t17.5 70h139q3 -134 -37 -195t-122 -61q-61 0 -133 39q-6 3 -17 9.5t-16.5 9t-14 6.5t-14 6t-13 3.5t-14.5 1.5
q-43 0 -49 -88z" />
    <glyph glyph-name="uni1EBD" unicode="&#x1ebd;" horiz-adv-x="1081" 
d="M1010 401h-645q6 -92 86 -141t196 -49q152 0 277 43l41 -211q-149 -63 -363 -63q-253 0 -393.5 136t-140.5 373q0 98 31 191t90.5 171t159 125.5t224.5 47.5q94 0 170.5 -28.5t127 -76t85 -112.5t49.5 -135.5t15 -147.5q0 -66 -10 -123zM362 614h369q0 32 -8 64t-26 65
t-54.5 53.5t-87.5 20.5q-47 0 -84 -19.5t-59 -51.5t-34.5 -65.5t-15.5 -66.5zM395 1141h-147q-4 128 42 199t126 71q53 0 133 -41q8 -4 23.5 -13t23.5 -13.5t19 -8.5t20 -4q25 0 37 18.5t16 71.5h143q8 -262 -167 -262q-9 0 -18 0.5t-18.5 2.5t-15.5 3.5t-16.5 5t-14.5 5
t-15.5 6.5t-13.5 6t-14.5 7.5t-13.5 6.5q-8 4 -19.5 11t-17 9.5t-14 6t-15 5t-14.5 1.5q-43 0 -49 -94z" />
    <glyph glyph-name="uni1EBE" unicode="&#x1ebe;" horiz-adv-x="1093" 
d="M956 838v-254h-507v-328h567v-256h-879v1380h850v-256h-538v-286h507zM461 1706h215l186 -252h-200l-93 129h-4l-90 -129h-199zM913 1874h269l-275 -234h-149z" />
    <glyph glyph-name="uni1EBF" unicode="&#x1ebf;" horiz-adv-x="1081" 
d="M1010 401h-645q6 -92 86 -141t196 -49q152 0 277 43l41 -211q-149 -63 -363 -63q-253 0 -393.5 136t-140.5 373q0 98 31 191t90.5 171t159 125.5t224.5 47.5q94 0 170.5 -28.5t127 -76t85 -112.5t49.5 -135.5t15 -147.5q0 -66 -10 -123zM362 614h369q0 32 -8 64t-26 65
t-54.5 53.5t-87.5 20.5q-47 0 -84 -19.5t-59 -51.5t-34.5 -65.5t-15.5 -66.5zM469 1438h217l182 -312h-198l-90 179h-5l-92 -179h-198zM948 1634h238l-236 -307h-159z" />
    <glyph glyph-name="uni1EC0" unicode="&#x1ec0;" horiz-adv-x="1093" 
d="M956 838v-254h-507v-328h567v-256h-879v1380h850v-256h-538v-286h507zM631 1845h268l133 -231h-162zM457 1706h217l184 -252h-201l-90 129h-4l-92 -129h-199z" />
    <glyph glyph-name="uni1EC1" unicode="&#x1ec1;" horiz-adv-x="1081" 
d="M1010 401h-645q6 -92 86 -141t196 -49q152 0 277 43l41 -211q-149 -63 -363 -63q-253 0 -393.5 136t-140.5 373q0 98 31 191t90.5 171t159 125.5t224.5 47.5q94 0 170.5 -28.5t127 -76t85 -112.5t49.5 -135.5t15 -147.5q0 -66 -10 -123zM362 614h369q0 32 -8 64t-26 65
t-54.5 53.5t-87.5 20.5q-47 0 -84 -19.5t-59 -51.5t-34.5 -65.5t-15.5 -66.5zM653 1636h234l139 -309h-156zM461 1438h217l184 -312h-198l-93 179h-4l-90 -179h-198z" />
    <glyph glyph-name="uni1EC2" unicode="&#x1ec2;" horiz-adv-x="1093" 
d="M954 838v-254h-505v-328h567v-256h-879v1380h848v-256h-536v-286h505zM463 1706h215l186 -252h-200l-93 129h-4l-90 -129h-198zM950 1552l-121 29q12 35 38 65.5t44.5 54t18.5 50.5q0 26 -18 43.5t-44 17.5q-50 0 -94 -73l-90 55q78 150 229 150q79 0 132 -46.5
t53 -115.5q0 -37 -16 -67.5t-37.5 -49.5t-49.5 -50t-45 -63z" />
    <glyph glyph-name="uni1EC3" unicode="&#x1ec3;" horiz-adv-x="1081" 
d="M1008 401h-643q6 -92 86 -141t196 -49q152 0 277 43l41 -211q-149 -63 -363 -63q-253 0 -393.5 136t-140.5 373q0 98 31 191t90.5 171t159 125.5t224.5 47.5q94 0 170.5 -28.5t127 -76t85 -112.5t49.5 -135.5t15 -147.5t-12 -123zM362 614h369q0 32 -8 64t-26 65
t-54.5 53.5t-87.5 20.5q-47 0 -84 -19.5t-59 -51.5t-34.5 -65.5t-15.5 -66.5zM453 1438h217l182 -312h-199l-90 179h-4l-92 -179h-199zM936 1296l-131 29q14 41 54 86.5t40 77.5q0 26 -16 42.5t-41 16.5q-44 0 -86 -67l-92 57q82 150 233 150q76 0 130 -48.5t54 -113.5
q0 -32 -10 -58t-27 -45.5t-35 -36.5t-39 -41t-34 -49z" />
    <glyph glyph-name="uni1EC4" unicode="&#x1ec4;" horiz-adv-x="1093" 
d="M956 838v-254h-507v-328h567v-256h-879v1380h850v-256h-538v-286h507zM475 1706h234l206 -252h-219l-102 127h-4l-103 -127h-217zM457 1739h-148q-1 107 44.5 169t123.5 62q55 0 131 -39q68 -35 88 -35q25 0 37.5 17t16.5 63h143q8 -235 -168 -235q-27 0 -54 8t-39 14
t-44 23q-4 2 -16.5 8t-15.5 7.5t-12 5.5t-13.5 5t-11 2t-13.5 1q-43 0 -49 -76z" />
    <glyph glyph-name="uni1EC5" unicode="&#x1ec5;" horiz-adv-x="1081" 
d="M1010 401h-645q6 -92 86 -141t196 -49q152 0 277 43l41 -211q-149 -63 -363 -63q-253 0 -393.5 136t-140.5 373q0 98 31 191t90.5 171t159 125.5t224.5 47.5q94 0 170.5 -28.5t127 -76t85 -112.5t49.5 -135.5t15 -147.5q0 -66 -10 -123zM362 614h369q0 32 -8 64t-26 65
t-54.5 53.5t-87.5 20.5q-47 0 -84 -19.5t-59 -51.5t-34.5 -65.5t-15.5 -66.5zM455 1393h215l194 -267h-202l-97 146h-4l-98 -146h-203zM426 1425h-147q-1 107 44 169.5t123 62.5q56 0 132 -39q68 -35 88 -35q27 0 38.5 17t14.5 65h143q8 -238 -168 -238q-20 0 -40.5 5
t-32 9.5t-34.5 16.5t-30 15q-58 28 -82 28q-43 0 -49 -76z" />
    <glyph glyph-name="uni1EC6" unicode="&#x1ec6;" horiz-adv-x="1093" 
d="M956 838v-254h-507v-328h567v-256h-879v1380h850v-256h-538v-286h507zM451 1706h233l207 -252h-219l-103 127h-4l-102 -127h-217zM567 -444q-59 0 -100 41.5t-41 97.5q0 60 41.5 100.5t101.5 40.5q59 0 98.5 -40.5t39.5 -100.5q0 -56 -40.5 -97.5t-99.5 -41.5z" />
    <glyph glyph-name="uni1EC7" unicode="&#x1ec7;" horiz-adv-x="1081" 
d="M1010 401h-645q6 -92 86 -141t196 -49q152 0 277 43l41 -211q-149 -63 -363 -63q-253 0 -393.5 136t-140.5 373q0 98 31 191t90.5 171t159 125.5t224.5 47.5q94 0 170.5 -28.5t127 -76t85 -112.5t49.5 -135.5t15 -147.5q0 -66 -10 -123zM362 614h369q0 32 -8 64t-26 65
t-54.5 53.5t-87.5 20.5q-47 0 -84 -19.5t-59 -51.5t-34.5 -65.5t-15.5 -66.5zM436 1438h209l203 -312h-203l-102 179h-4l-105 -179h-203zM543 -164q60 0 99.5 -40.5t39.5 -102.5q0 -61 -40 -103.5t-101 -42.5t-102.5 42.5t-41.5 103.5t42 102t104 41z" />
    <glyph glyph-name="uni1EC8" unicode="&#x1ec8;" horiz-adv-x="583" 
d="M137 1380h312v-1380h-312v1380zM365 1446l-144 31q13 38 39 69t44 54.5t18 52.5q0 27 -17.5 44t-42.5 17q-50 0 -92 -72l-98 62q81 162 247 162q84 0 142.5 -51.5t58.5 -122.5q0 -42 -17 -75.5t-39.5 -54t-52 -52.5t-46.5 -64z" />
    <glyph glyph-name="uni1EC9" unicode="&#x1ec9;" horiz-adv-x="561" 
d="M436 0h-311v1001h311v-1001zM334 1079l-148 33q10 39 38.5 74.5t50.5 65t22 61.5q0 30 -17.5 47.5t-43.5 17.5q-49 0 -91 -69l-100 63q81 162 248 162q87 0 145 -50.5t58 -127.5q0 -46 -19.5 -86.5t-44.5 -65.5t-54.5 -59.5t-43.5 -65.5z" />
    <glyph glyph-name="uni1ECA" unicode="&#x1eca;" horiz-adv-x="583" 
d="M137 1380h312v-1380h-312v1380zM293 -444q-59 0 -100 41.5t-41 97.5q0 60 41.5 100.5t101.5 40.5q58 0 97.5 -40.5t39.5 -100.5q0 -57 -40 -98t-99 -41z" />
    <glyph glyph-name="uni1ECB" unicode="&#x1ecb;" horiz-adv-x="561" 
d="M436 0h-311v1001h311v-1001zM283 1436q73 0 117 -44t46 -112q0 -67 -45.5 -111.5t-121.5 -44.5q-72 0 -117 45t-45 111q0 67 46 111.5t120 44.5zM283 -164q60 0 99.5 -41t39.5 -104q0 -60 -40 -102t-101 -42t-102.5 42.5t-41.5 101.5q0 63 42 104t104 41z" />
    <glyph glyph-name="uni1ECC" unicode="&#x1ecc;" horiz-adv-x="1468" 
d="M743 1405q155 0 281 -55.5t207 -151t124.5 -222t43.5 -271.5q0 -338 -185 -533t-493 -195q-199 0 -348 94.5t-225 253t-76 357.5q0 206 82 370t236 258.5t353 94.5zM737 1157q-156 0 -246 -131.5t-90 -337.5q0 -207 90.5 -335t245.5 -128q103 0 179 61.5t114.5 167
t38.5 240.5q0 127 -37.5 231t-114 168t-180.5 64zM735 -444q-59 0 -100 41.5t-41 97.5q0 60 41.5 100.5t101.5 40.5q58 0 97.5 -40.5t39.5 -100.5q0 -57 -40 -98t-99 -41z" />
    <glyph glyph-name="uni1ECD" unicode="&#x1ecd;" horiz-adv-x="1181" 
d="M604 1026q228 0 369 -143t141 -371q0 -133 -44.5 -237.5t-119.5 -168t-168 -96.5t-196 -33q-226 0 -372 140t-146 377q0 243 146.5 387.5t389.5 144.5zM594 803q-70 0 -118 -46t-67.5 -111.5t-19.5 -143.5q0 -133 54 -217t151 -84q92 0 145.5 83t53.5 220
q0 78 -19.5 143.5t-66 110.5t-113.5 45zM592 -164q60 0 99.5 -40t39.5 -103q0 -61 -40 -103.5t-101 -42.5t-102.5 42.5t-41.5 103.5t42 102t104 41z" />
    <glyph glyph-name="uni1ECE" unicode="&#x1ece;" horiz-adv-x="1468" 
d="M743 1405q155 0 281 -55.5t207 -151t124.5 -222t43.5 -271.5q0 -338 -185 -533t-493 -195q-199 0 -348 94.5t-225 253t-76 357.5q0 206 82 370t236 258.5t353 94.5zM737 1157q-156 0 -246 -131.5t-90 -337.5q0 -207 90.5 -335t245.5 -128q103 0 179 61.5t114.5 167
t38.5 240.5q0 127 -37.5 231t-114 168t-180.5 64zM807 1448l-143 31q13 38 38.5 69t43.5 54.5t18 52.5q0 26 -17 43.5t-42 17.5q-52 0 -93 -71l-100 61q84 162 250 162q84 0 142.5 -51.5t58.5 -122.5q0 -42 -17 -75.5t-39.5 -54t-52.5 -52.5t-47 -64z" />
    <glyph glyph-name="uni1ECF" unicode="&#x1ecf;" horiz-adv-x="1181" 
d="M604 1026q228 0 369 -143t141 -371q0 -133 -44.5 -237.5t-119.5 -168t-168 -96.5t-196 -33q-226 0 -372 140t-146 377q0 244 146 388t390 144zM594 803q-70 0 -118 -46t-67.5 -111.5t-19.5 -143.5q0 -133 54 -217t151 -84q92 0 145.5 83t53.5 220q0 78 -19.5 143.5
t-66 110.5t-113.5 45zM645 1079l-149 35q8 32 27.5 61t37 47t31.5 42.5t14 50.5q0 30 -17 47.5t-44 17.5q-50 0 -88 -69l-103 61q82 164 250 164q86 0 144.5 -50.5t58.5 -127.5q0 -38 -12.5 -70.5t-32.5 -58t-41 -47.5t-43 -49t-33 -54z" />
    <glyph glyph-name="uni1ED0" unicode="&#x1ed0;" horiz-adv-x="1468" 
d="M741 1405q155 0 281 -55.5t207 -151t125 -222t45 -271.5q0 -338 -185 -533t-493 -195q-150 0 -273 54.5t-205 149.5t-126.5 223.5t-44.5 275.5q0 206 82.5 370.5t235.5 259t351 95.5zM735 1157q-155 0 -245.5 -132t-88.5 -339q0 -206 90.5 -333.5t245.5 -127.5
t243.5 130.5t88.5 336.5q0 127 -37.5 231t-114.5 168.5t-182 65.5zM643 1706h217l184 -250h-200l-90 129h-4l-93 -129h-198zM1096 1876h268l-274 -234h-150z" />
    <glyph glyph-name="uni1ED1" unicode="&#x1ed1;" horiz-adv-x="1181" 
d="M604 1026q228 0 369 -143t141 -371q0 -133 -44.5 -237.5t-119.5 -168t-168 -96.5t-196 -33q-226 0 -372 140t-146 377q0 244 146 388t390 144zM594 803q-70 0 -118 -46t-67.5 -111.5t-19.5 -143.5q0 -133 54 -217t151 -84q92 0 145.5 83t53.5 220q0 78 -19.5 143.5
t-66 110.5t-113.5 45zM492 1438h217l182 -312h-199l-90 179h-4l-92 -179h-199zM971 1634h237l-235 -307h-160z" />
    <glyph glyph-name="uni1ED2" unicode="&#x1ed2;" horiz-adv-x="1468" 
d="M741 1405q155 0 281 -55.5t207 -151t125 -222t45 -271.5q0 -338 -185 -533t-493 -195q-150 0 -273 54.5t-205 149.5t-126.5 223.5t-44.5 275.5q0 206 82.5 370.5t235.5 259t351 95.5zM735 1157q-155 0 -245.5 -132t-88.5 -339q0 -206 90.5 -333.5t245.5 -127.5
t243.5 130.5t88.5 336.5q0 127 -37.5 231t-114.5 168.5t-182 65.5zM807 1847h268l135 -231h-161zM633 1706h217l186 -250h-202l-91 129h-4l-90 -129h-198z" />
    <glyph glyph-name="uni1ED3" unicode="&#x1ed3;" horiz-adv-x="1181" 
d="M604 1026q228 0 369 -143t141 -371q0 -133 -44.5 -237.5t-119.5 -168t-168 -96.5t-196 -33q-226 0 -372 140t-146 377q0 244 146 388t390 144zM594 803q-70 0 -118 -46t-67.5 -111.5t-19.5 -143.5q0 -133 54 -217t151 -84q92 0 145.5 83t53.5 220q0 78 -19.5 143.5
t-66 110.5t-113.5 45zM686 1636h236l139 -309h-156zM496 1438h217l182 -312h-199l-90 179h-4l-92 -179h-199z" />
    <glyph glyph-name="uni1ED4" unicode="&#x1ed4;" horiz-adv-x="1468" 
d="M743 1405q155 0 281 -55.5t207 -151t124.5 -222t43.5 -271.5q0 -338 -185 -533t-493 -195q-199 0 -348 94.5t-225 253t-76 357.5q0 206 82 370t236 258.5t353 94.5zM737 1157q-156 0 -246 -131.5t-90 -337.5q0 -207 90.5 -335t245.5 -128q103 0 179 61.5t114.5 167
t38.5 240.5q0 127 -37.5 231t-114 168t-180.5 64zM649 1706h217l187 -252h-203l-90 129h-4l-90 -129h-201zM1139 1552l-121 31q12 34 37.5 64.5t44 54t18.5 49.5t-17.5 43.5t-43.5 17.5q-50 0 -94 -73l-91 55q78 152 230 152q79 0 130.5 -47t51.5 -115q0 -38 -15.5 -68.5
t-36.5 -49.5t-48.5 -50.5t-44.5 -63.5z" />
    <glyph glyph-name="uni1ED5" unicode="&#x1ed5;" horiz-adv-x="1181" 
d="M604 1026q228 0 369 -143t141 -371q0 -133 -44.5 -237.5t-119.5 -168t-168 -96.5t-196 -33q-226 0 -372 140t-146 377q0 244 146 388t390 144zM594 803q-70 0 -118 -46t-67.5 -111.5t-19.5 -143.5q0 -133 54 -217t151 -84q92 0 145.5 83t53.5 220q0 78 -19.5 143.5
t-66 110.5t-113.5 45zM485 1438h217l183 -312h-199l-90 179h-4l-90 -179h-199zM969 1296l-131 29q12 35 36.5 64.5t42 51.5t17.5 48t-17.5 42.5t-42.5 16.5q-44 0 -86 -67l-92 57q82 150 234 150q76 0 130 -48.5t54 -113.5q0 -40 -15.5 -71.5t-36.5 -50t-48.5 -48.5
t-44.5 -60z" />
    <glyph glyph-name="uni1ED6" unicode="&#x1ed6;" horiz-adv-x="1468" 
d="M743 1405q155 0 281 -55.5t207 -151t124.5 -222t43.5 -271.5q0 -338 -185 -533t-493 -195q-199 0 -348 94.5t-225 253t-76 357.5q0 206 82 370t236 258.5t353 94.5zM737 1157q-156 0 -246 -131.5t-90 -337.5q0 -207 90.5 -335t245.5 -128q103 0 179 61.5t114.5 167
t38.5 240.5q0 127 -37.5 231t-114 168t-180.5 64zM623 1706h233l207 -252h-219l-103 127h-4l-102 -127h-217zM604 1739h-147q-1 107 44.5 169t123.5 62q55 0 131 -39q68 -35 88 -35q25 0 37 17t16 63h143q8 -235 -168 -235q-27 0 -54 8t-39 14t-44 23q-4 2 -16.5 8
t-15.5 7.5t-12 5.5t-13.5 5t-11 2t-13.5 1q-43 0 -49 -76z" />
    <glyph glyph-name="uni1ED7" unicode="&#x1ed7;" horiz-adv-x="1181" 
d="M604 1026q228 0 369 -143t141 -371q0 -133 -44.5 -237.5t-119.5 -168t-168 -96.5t-196 -33q-226 0 -372 140t-146 377q0 244 146 388t390 144zM594 803q-70 0 -118 -46t-67.5 -111.5t-19.5 -143.5q0 -133 54 -217t151 -84q92 0 145.5 83t53.5 220q0 78 -19.5 143.5
t-66 110.5t-113.5 45zM481 1393h215l195 -267h-203l-96 146h-4l-99 -146h-202zM453 1425h-148q-1 107 44.5 169.5t123.5 62.5q55 0 131 -39q68 -35 88 -35q27 0 38.5 17t14.5 65h144q9 -238 -168 -238q-20 0 -40.5 5t-32 9.5t-34.5 16.5t-30 15q-58 28 -82 28q-43 0 -49 -76
z" />
    <glyph glyph-name="uni1ED8" unicode="&#x1ed8;" horiz-adv-x="1468" 
d="M743 1405q155 0 281 -55.5t207 -151t124.5 -222t43.5 -271.5q0 -338 -185 -533t-493 -195q-199 0 -348 94.5t-225 253t-76 357.5q0 206 82 370t236 258.5t353 94.5zM737 1157q-156 0 -246 -131.5t-90 -337.5q0 -207 90.5 -335t245.5 -128q103 0 179 61.5t114.5 167
t38.5 240.5q0 127 -37.5 231t-114 168t-180.5 64zM618 1706h234l207 -252h-219l-103 127h-4l-102 -127h-217zM735 -444q-59 0 -100 41.5t-41 97.5q0 60 41.5 100.5t101.5 40.5q58 0 97.5 -40.5t39.5 -100.5q0 -57 -40 -98t-99 -41z" />
    <glyph glyph-name="uni1ED9" unicode="&#x1ed9;" horiz-adv-x="1181" 
d="M604 1026q228 0 369 -143t141 -371q0 -133 -44.5 -237.5t-119.5 -168t-168 -96.5t-196 -33q-226 0 -372 140t-146 377q0 243 146.5 387.5t389.5 144.5zM594 803q-70 0 -118 -46t-67.5 -111.5t-19.5 -143.5q0 -133 54 -217t151 -84q92 0 145.5 83t53.5 220
q0 78 -19.5 143.5t-66 110.5t-113.5 45zM485 1438h209l203 -312h-203l-102 179h-4l-105 -179h-202zM592 -164q60 0 99.5 -40.5t39.5 -102.5q0 -61 -40 -103.5t-101 -42.5t-102.5 42.5t-41.5 103.5t42 102t104 41z" />
    <glyph glyph-name="uni1EDA" unicode="&#x1eda;" horiz-adv-x="1468" 
d="M737 225q103 0 179 61.5t114.5 167t38.5 240.5q0 127 -38 231t-114.5 168t-179.5 64q-104 0 -181.5 -64t-116 -168.5t-38.5 -234.5q0 -202 91 -333.5t245 -131.5zM1229 1522l223 39q49 -104 49 -207q0 -98 -55.5 -160.5t-161.5 -65.5q115 -176 115 -423q0 -338 -185 -533
t-493 -195q-199 0 -348 94.5t-225 253t-76 357.5q0 206 82 370t236 258.5t353 94.5q138 0 252 -43q23 -8 67.5 -28t78 -32t57.5 -12q76 0 76 84q0 71 -45 148zM774 1706h328l-250 -252h-250z" />
    <glyph glyph-name="uni1EDB" unicode="&#x1edb;" horiz-adv-x="1204" 
d="M594 803q-70 0 -118 -46t-67.5 -111.5t-19.5 -143.5q0 -133 54 -217t151 -84q90 0 144.5 83t54.5 220q0 78 -19.5 143.5t-66 110.5t-113.5 45zM979 1159l219 37q45 -85 45 -192q0 -94 -52 -151.5t-147 -66.5q70 -120 70 -274q0 -133 -44.5 -237.5t-119.5 -168t-168 -96.5
t-196 -33q-226 0 -372 140t-146 377q0 244 146 388t388 144q95 0 184 -29q17 -5 51.5 -20t63.5 -25t51 -10q73 0 70 74q0 69 -43 143zM625 1438h286l-249 -312h-213z" />
    <glyph glyph-name="uni1EDC" unicode="&#x1edc;" horiz-adv-x="1468" 
d="M737 225q103 0 179 61.5t114.5 167t38.5 240.5q0 127 -38 231t-114.5 168t-179.5 64q-104 0 -181.5 -64t-116 -168.5t-38.5 -234.5q0 -202 91 -333.5t245 -131.5zM1229 1522l223 39q49 -100 49 -207q0 -98 -55.5 -160.5t-161.5 -65.5q115 -176 115 -423q0 -338 -185 -533
t-493 -195q-199 0 -348 94.5t-225 253t-76 357.5q0 206 82 370t236 258.5t353 94.5q138 0 252 -43q25 -8 68 -27.5t77 -32t58 -12.5q76 0 76 84q0 71 -45 148zM399 1708h328l172 -250h-250z" />
    <glyph glyph-name="uni1EDD" unicode="&#x1edd;" horiz-adv-x="1204" 
d="M594 803q-70 0 -118 -46t-67.5 -111.5t-19.5 -143.5q0 -133 54 -217t151 -84q90 0 144.5 83t54.5 220q0 78 -19.5 143.5t-66 110.5t-113.5 45zM979 1159l219 37q45 -85 45 -192q0 -94 -52 -151.5t-147 -66.5q70 -120 70 -274q0 -133 -44.5 -237.5t-119.5 -168t-168 -96.5
t-196 -33q-226 0 -372 140t-146 377q0 244 146 388t388 144q95 0 184 -29q17 -5 51.5 -20t63.5 -25t51 -10q73 0 70 74q0 69 -43 143zM281 1438h286l176 -312h-213z" />
    <glyph glyph-name="uni1EDE" unicode="&#x1ede;" horiz-adv-x="1468" 
d="M737 225q103 0 179 61.5t114.5 167t38.5 240.5q0 127 -38 231t-114.5 168t-179.5 64q-104 0 -181.5 -64t-116 -168.5t-38.5 -234.5q0 -202 91 -333.5t245 -131.5zM1229 1524l223 39q49 -104 49 -209q0 -98 -55.5 -160.5t-161.5 -65.5q115 -176 115 -423q0 -338 -185 -533
t-493 -195q-199 0 -348 94.5t-225 253t-76 357.5q0 206 82 370t236 258.5t353 94.5q138 0 252 -43q23 -8 67.5 -28t78 -32t57.5 -12q76 0 76 84q0 73 -45 150zM807 1448l-143 31q13 38 38.5 69t43.5 54.5t18 52.5q0 26 -17 43.5t-42 17.5q-52 0 -93 -71l-100 61
q84 162 250 162q84 0 142.5 -51.5t58.5 -122.5q0 -42 -17 -75.5t-39.5 -54t-52.5 -52.5t-47 -64z" />
    <glyph glyph-name="uni1EDF" unicode="&#x1edf;" horiz-adv-x="1204" 
d="M594 803q-70 0 -118 -46t-67.5 -111.5t-19.5 -143.5q0 -133 54 -217t151 -84q90 0 144.5 83t54.5 220q0 78 -19.5 143.5t-66 110.5t-113.5 45zM979 1159l219 37q45 -85 45 -192q0 -94 -52 -151.5t-147 -66.5q70 -120 70 -274q0 -133 -44.5 -237.5t-119.5 -168t-168 -96.5
t-196 -33q-226 0 -372 140t-146 377q0 244 146 388t388 144q95 0 184 -29q17 -5 51.5 -20t63.5 -25t51 -10q73 0 70 74q0 69 -43 143zM645 1079l-149 35q8 32 27.5 61t37 47t31.5 42.5t14 50.5q0 30 -17.5 47.5t-43.5 17.5q-50 0 -88 -69l-103 61q82 164 248 164
q87 0 146 -50.5t59 -127.5q0 -38 -12.5 -70.5t-32.5 -58t-41 -47.5t-43 -49t-33 -54z" />
    <glyph glyph-name="uni1EE0" unicode="&#x1ee0;" horiz-adv-x="1468" 
d="M737 225q155 0 243.5 130.5t88.5 336.5q0 127 -38 231t-115 168.5t-181 65.5q-104 0 -181.5 -64t-115.5 -169t-37 -236q0 -201 91 -332t245 -131zM1229 1522l223 39q49 -104 49 -209q0 -98 -55.5 -161t-161.5 -67q115 -173 115 -419q0 -338 -185 -533t-493 -195
q-150 0 -273 54.5t-205 149.5t-126.5 223.5t-44.5 275.5q0 154 48 287.5t134.5 230t212.5 151.5t276 56q138 0 252 -43q21 -8 66.5 -28.5t78.5 -32t58 -11.5q76 0 76 82q0 73 -45 150zM606 1464l-143 -2q-3 127 39.5 194.5t118.5 67.5q61 0 131 -41q63 -38 90 -38
q26 0 37.5 18t17.5 70h139q3 -134 -37 -195t-122 -61q-66 0 -134 39q-7 4 -20 11.5t-19 10.5t-15.5 7t-17.5 5.5t-16 1.5q-43 0 -49 -88z" />
    <glyph glyph-name="uni1EE1" unicode="&#x1ee1;" horiz-adv-x="1204" 
d="M594 803q-54 0 -95 -26t-64 -70t-34.5 -95.5t-11.5 -109.5q0 -133 54 -217t151 -84q90 0 144.5 83t54.5 220q0 78 -19.5 143.5t-66 110.5t-113.5 45zM979 1159l219 37q45 -88 45 -192q0 -94 -52 -151.5t-147 -66.5q70 -120 70 -274q0 -133 -44.5 -237.5t-119.5 -168
t-168 -96.5t-196 -33q-226 0 -372 140t-146 377q0 244 146 388t388 144q97 0 182 -29q8 -3 73.5 -29t94.5 -26q70 0 70 74q0 69 -43 143zM446 1143h-147q-4 126 42 197t124 71q51 0 135 -41q8 -4 23.5 -13t23.5 -13.5t19 -8.5t20 -4q25 0 37 18.5t16 71.5h144
q8 -261 -168 -264q-58 0 -142 45q-7 4 -18.5 11t-16.5 9.5t-13 6t-14.5 5t-14.5 1.5q-44 0 -50 -92z" />
    </font>
</defs>
</svg>
